<?xml version="1.0" standalone="no"?>
<!DOCTYPE svg PUBLIC "-//W3C//DTD SVG 1.1//EN" "http://www.w3.org/Graphics/SVG/1.1/DTD/svg11.dtd" >
<svg xmlns="http://www.w3.org/2000/svg" xmlns:xlink="http://www.w3.org/1999/xlink" version="1.1">
<metadata>
Created by FontForge 20161003 at Thu Jun 22 13:27:36 2017
 By www-data
FREE FOR PERSONAL                                                                  LICENSE FOR COMMERCIAL
</metadata>
<defs>
<font id="laCompagniedesOmbres" horiz-adv-x="574" >
  <font-face 
    font-family="laCompagniedesOmbres"
    font-weight="400"
    font-stretch="normal"
    units-per-em="1000"
    panose-1="2 0 0 0 0 0 0 0 0 0"
    ascent="750"
    descent="-250"
    x-height="190.5"
    cap-height="445"
    bbox="-240 -314 943 582.8"
    underline-thickness="50"
    underline-position="-150"
    unicode-range="U+0020-2122"
  />
<missing-glyph horiz-adv-x="149" 
 />
    <glyph glyph-name=".notdef" horiz-adv-x="149" 
 />
    <glyph glyph-name=".null" horiz-adv-x="0" 
 />
    <glyph glyph-name="nonmarkingreturn" horiz-adv-x="333" 
 />
    <glyph glyph-name="space" unicode=" " horiz-adv-x="149" 
 />
    <glyph glyph-name="exclam" unicode="!" horiz-adv-x="300" 
d="M290 413q0 -4 -2.5 -10.5t-7.5 -17.5t-15 -28.5t-25 -42.5q-14 -24 -39 -58.5t-49 -67t-41.5 -56.5t-18.5 -28q-3 -5 -4 -5q-2 0 -2 1v2q0 10 12 35.5t29.5 59t38.5 70t39.5 68t31.5 54t15 27.5q1 3 6 3.5t7 0.5q3 0 14 -0.5t11 -6.5zM79 83q4 1 2 -9.5t-7 -25t-10.5 -27
t-8.5 -15.5q-6 2 -12.5 4.5t-10.5 7.5q-1 2 3.5 12t12 21t16 20.5t15.5 11.5z" />
    <glyph glyph-name="dollar" unicode="$" horiz-adv-x="414" 
d="M332 488q0 -2 -6 -16t-17 -34q14 -5 28 -11.5t25 -15.5t18 -19.5t7 -22.5q0 -8 -3 -15.5t-11 -7.5q-5 0 -9 7t-12.5 17t-22 20.5t-35.5 16.5q-16 -32 -34 -66t-33 -62q15 -7 33.5 -15.5t35 -19t28 -23.5t11.5 -28q0 -27 -20.5 -44t-48.5 -26t-58 -12.5t-48 -3.5h-22
t-20 2q-16 -22 -16 -26q-1 -1 -1 -2t-2 -1q-1 0 -1 3q0 2 2.5 9.5t7.5 17.5q-43 8 -62.5 20.5t-20.5 17.5l-2 4q-1 0 -1 3v1q0 2 1 2h2q9 -12 29 -21t61 -13q12 26 31 63t42 77q-14 6 -33 14.5t-36 19.5t-29 25.5t-12 33.5q0 22 17 38.5t41.5 27.5t51 17t45.5 8h15
q8 0 17.5 -1t21.5 -3q9 18 15.5 30.5t8.5 16.5q0 1 4.5 1h6.5t6 0.5t4 -4.5zM309 193q0 7 -8.5 14.5t-22.5 15.5t-31.5 15.5t-34.5 15.5q-5 -12 -9 -17q-6 -11 -15.5 -25t-20 -29t-20.5 -30.5t-19 -28.5h14q10 0 36.5 2t55 9.5t51 21t24.5 36.5zM110 360q0 -8 8 -16.5
t21 -17.5t29 -18t33 -18q19 33 36 64.5t31 57.5q-5 1 -11 1h-13q-3 0 -24.5 -2.5t-46 -9t-44 -16.5t-19.5 -25z" />
    <glyph glyph-name="quotesingle" unicode="'" horiz-adv-x="110" 
d="M139 426q-2 -5 -10.5 -23.5t-21 -40.5t-27 -41.5t-28.5 -26.5q-5 -3 -13.5 -2t-16 3.5t-11 6t1.5 4.5q13 0 31.5 16t36 38t32.5 43.5t22 32.5q0 2 4 0.5t0 -10.5z" />
    <glyph glyph-name="plus" unicode="+" horiz-adv-x="314" 
d="M206 311v-5t-2 -8q-1 -3 -3 -11q-2 -6 -4 -9q-3 -8 -7.5 -18t-9.5 -23q-1 -4 -4 -8l-2 -4l-2 -4l-2 -4l-6 -12q34 0 61.5 -0.5t36.5 0.5q2 0 2.5 0.5t1.5 0.5q2 0 4 -3q1 -1 1.5 -2t1.5 -2t1.5 -2.5t1.5 -3.5q2 -4 -1 -5l-1 -1l-2 -1h-2l-2 -1h-2q-1 0 -1.5 -0.5
t-1.5 -0.5h-3q-4 -1 -14 -1q-5 -1 -10.5 -1h-13.5h-3q-5 0 -10.5 0.5t-11.5 0.5h-9q-8 0 -16.5 0.5t-18.5 1.5q-2 -5 -4.5 -8.5t-4.5 -8.5q-2 -4 -4 -7.5t-4 -7.5q-12 -23 -22 -41.5t-14 -26.5q-1 -3 -1 -5q-1 -2 -1 -4h-2q1 0 -2 3q0 5 1 8q1 4 2 8.5t3 10.5q4 11 9.5 24.5
t11.5 29.5q3 7 6 13t6 13q-6 1 -12 1t-12 1q-30 2 -54.5 4t-31.5 1h-2q-4 0 -4 1q-1 0 -1 1t1 1l1 1l2 1q2 0 3 1q2 0 3.5 0.5t3.5 0.5t2.5 0.5t2.5 0.5q6 0 10 1q8 0 13 1q3 0 6.5 0.5t7.5 0.5h15q4 0 8 0.5t8 0.5h38q3 6 5.5 12.5t5.5 12.5q7 15 12.5 28.5t10.5 24.5
q2 5 4 9.5t4 8.5q1 2 1 3t1 2q0 2 0.5 2.5t0.5 1.5q1 1 4 2t5 0q3 3 8 1q3 0 3 -2z" />
    <glyph glyph-name="comma" unicode="," horiz-adv-x="74" 
d="M17 -46q-4 -2 -2 9t7 25.5t10.5 27t8.5 15.5q6 -2 12.5 -4.5t10.5 -7.5q1 -2 -3.5 -12t-12 -21.5t-16 -21t-15.5 -10.5z" />
    <glyph glyph-name="hyphen" unicode="-" horiz-adv-x="306" 
d="M276 155q-5 -3 -21 -4.5t-57 -0.5q-20 0 -49 2t-56 4.5t-47.5 3.5t-23.5 0q-4 0 -4 1q-1 1 0 1.5t1 1.5q6 3 26 5t46.5 2.5t56 0.5h55h43.5t21 1q2 0 4 -2.5t3 -4.5q2 -2 3.5 -5.5t-1.5 -5.5q-5 -3 -21 -4.5t-57 -0.5q-20 0 -49 2t-56 4.5t-47.5 3.5t-23.5 0q-4 0 -4 1
q-1 1 0 1.5t1 1.5q6 3 26 5t46.5 2.5t56 0.5h55h43.5t21 1q2 0 4 -2.5t3 -4.5q2 -2 3.5 -5.5t-1.5 -5.5z" />
    <glyph glyph-name="period" unicode="." horiz-adv-x="88" 
d="M59 26q4 1 4 -5t-2.5 -15t-6.5 -17t-7 -11q-6 2 -12.5 4.5t-10.5 7.5q-1 2 2 7.5t8 11.5t11.5 10.5t13.5 6.5z" />
    <glyph glyph-name="slash" unicode="/" horiz-adv-x="274" 
d="M362 484q0 -7 -4 -18.5t-13.5 -31.5t-26.5 -51t-44 -76q-17 -29 -42 -66.5t-52 -77.5t-54 -79t-48.5 -71t-35.5 -53.5t-15 -26.5q-4 -9 -7 -9q-2 0 -3 2.5t-1 3.5q0 17 21 63t53 105t69.5 124.5t70.5 122t56 96t26 48.5q2 5 10.5 6t13.5 1t15.5 -1t10.5 -11z" />
    <glyph glyph-name="zero" unicode="0" horiz-adv-x="444" 
d="M425 414q-2 -87 -25.5 -166t-56.5 -139t-69.5 -95.5t-63.5 -35.5h-8t-6 5q1 3 2.5 3.5t3.5 1.5q22 3 54 33t60.5 83.5t49 128.5t20.5 169q0 14 -1.5 28.5t-3.5 22.5q-1 -1 -2 -1t-3 -1q-36 -20 -72.5 -51.5t-71 -69t-64.5 -78t-52 -79t-35 -73.5t-13 -60q0 -15 5.5 -24.5
t13.5 -14t17.5 -6.5t18.5 -2q8 0 13.5 1t7.5 1q11 0 23 -10.5t16 -21.5l-3 -1l3 1q0 -11 -19.5 -16t-49.5 -5q-8 0 -24 2.5t-32 12t-28 29t-12 54.5q0 46 20.5 96t53 98.5t73 93t81 80.5t76.5 60t60 32h1q17 -3 25.5 -11t12.5 -20t4 -26.5v-28.5z" />
    <glyph glyph-name="one" unicode="1" horiz-adv-x="377" 
d="M362 484q0 -7 -4 -18.5t-13.5 -31.5t-26.5 -51t-44 -76q-17 -29 -42 -66.5t-52 -77.5t-54 -79t-48.5 -71t-35.5 -53.5t-15 -26.5q-4 -9 -7 -9q-2 0 -3 2.5t-1 3.5q0 17 21 63t53 105t69.5 124.5t70.5 122t56 96t26 48.5q2 5 10.5 6t13.5 1t15.5 -1t10.5 -11z" />
    <glyph glyph-name="two" unicode="2" horiz-adv-x="453" 
d="M231 -30q3 0 7 1t9 1q10 0 11 -7q0 -7 -16.5 -13.5t-38 -11t-41.5 -7t-27 -2.5q-42 0 -75 7t-39 15l-2 2q1 2 5 15t18 39t42.5 66t78.5 97q40 45 85 97.5t91 110.5l46 62q-6 3 -19 5t-25 2q-69 0 -115 -23.5t-73 -57.5t-38.5 -70.5t-11.5 -63.5q0 -25 3 -40.5t3 -20.5
q-4 -13 -11 -23t-19 -14l-1 3l1 -3q-26 50 -26 115q0 44 15.5 88t49.5 79.5t89 57.5t134 22q9 0 25 -2.5t31.5 -8.5t27 -15.5t11.5 -22.5q0 -4 -2 -10.5t-12 -24.5q-42 -54 -89.5 -105t-93.5 -98q-34 -32 -63.5 -64t-53.5 -60.5t-42 -52t-28 -39.5q3 -1 20.5 -5t43.5 -8.5
t56.5 -8t58.5 -3.5z" />
    <glyph glyph-name="three" unicode="3" horiz-adv-x="408" 
d="M339 290q19 -15 28.5 -39.5t9.5 -54.5q0 -42 -20 -88.5t-53 -85.5t-76.5 -64.5t-91.5 -25.5q-32 0 -54 12.5t-36.5 32t-21 44t-6.5 47.5q0 32 8 60t20.5 50.5t28.5 39.5t32 28q29 19 48.5 22t22.5 3q10 0 11 -4q-2 -7 -9.5 -7t-15.5 -4q-7 -2 -25.5 -11.5t-38 -30
t-34.5 -53.5t-15 -81q0 -19 4 -37.5t13.5 -33.5t24.5 -24t37 -9q42 0 77.5 24.5t61.5 59.5t41 73t15 66q0 25 -9.5 39t-23 21t-27 9t-20.5 2q-11 0 -22 12.5t-11 27.5q0 7 9.5 9t22.5 2q15 0 27 -2t16 -2t11.5 2.5t15 11.5t13.5 26t9 47q-2 16 -5.5 29t-22.5 13
q-20 0 -44.5 -7t-47 -19.5t-39 -29.5t-18.5 -37q0 -16 5.5 -20.5t12.5 -5t12.5 -0.5t5.5 -6q0 -5 -7 -4.5t-12 0.5q-2 0 -8 1.5t-12 6t-11 12.5t-5 20q0 18 13.5 41t37 44t55 35t68.5 14q25 0 39.5 -11.5t22 -26.5t10 -30.5t2.5 -22.5q0 -39 -16 -67.5t-33 -42.5z" />
    <glyph glyph-name="four" unicode="4" horiz-adv-x="463" 
d="M383 311q-9 -22 -21 -49.5t-26.5 -58t-29.5 -61.5t-29 -61q39 -3 65.5 -5.5t26.5 -4.5l1 -1q3 -2 3 -4q0 -4 -3 -5h-1q0 -2 -26 -5t-83 -10q-11 -23 -20.5 -42.5t-16.5 -34.5t-10.5 -24t-3.5 -10h-2l2 -2l-2 -2q-2 -3 -5 -3q-4 0 -4 5v1q0 8 6.5 31.5t24.5 76.5
q-25 -3 -51 -5.5t-49.5 -5t-43.5 -3.5t-33 -1q-9 0 -15 1.5t-8 1.5v1q-11 6 -11 21q0 11 7.5 19.5t21.5 8.5q19 16 50.5 53.5t68.5 84t75.5 97t71 92t56 68t29.5 26.5l7.5 -1.5t16.5 -4.5t16 -7t7 -8q0 -7 -3 -17t-10.5 -29t-19 -48.5t-29.5 -74.5zM243 82q12 33 25.5 70.5
t28 75t28 74t25.5 68.5q-18 -22 -50 -60.5t-70.5 -81t-79.5 -82.5t-77 -65q32 0 63.5 1t63.5 1q11 0 21.5 -0.5t21.5 -0.5z" />
    <glyph glyph-name="five" unicode="5" horiz-adv-x="379" 
d="M294 312q29 -9 47.5 -41.5t18.5 -76.5q0 -40 -19 -86t-50.5 -85t-73.5 -65t-88 -26q-32 0 -53 12t-34 30.5t-18.5 42t-5.5 47.5q0 44 12.5 75.5t18.5 39.5h-1l3 3l1 2q3 3 5 3q5 0 5 -5t-3.5 -10t-7 -15t-7 -26.5t-3.5 -42.5q0 -16 3.5 -36.5t12.5 -39t24 -31t38 -12.5
q37 0 71 23t60.5 57t42 74t15.5 74q0 24 -5.5 38.5t-15 22.5t-21.5 10.5t-24 2.5q-11 0 -21 -1t-18 -1q-26 0 -45.5 19.5t-19.5 49.5q0 21 5.5 42.5t13 40.5t14.5 34t10 23q4 5 9 6.5t7 1.5l21 -6.5t46.5 -14.5t46.5 -15t21 -8q0 -5 -10.5 -7t-25.5 -2q-16 0 -38 2t-48 8
l-8 -26q-5 -17 -8 -34.5t-3 -31.5q0 -24 10 -29q10 0 19 0.5t18 0.5q14 0 27 -2t29 -9z" />
    <glyph glyph-name="six" unicode="6" horiz-adv-x="362" 
d="M343 464q0 -8 -6 -11.5t-17.5 -8t-27.5 -13t-36.5 -24.5t-45 -43t-51.5 -70q11 7 26 11t32 4q21 0 41.5 -8.5t36 -26t25 -43.5t9.5 -61t-13 -76t-37.5 -76t-61 -58t-84.5 -23q-32 0 -54 11t-35.5 28t-19.5 38t-6 41q0 33 6 62t16 57q29 84 70.5 144t81 99t70.5 57t40 18
q3 0 9 -1t13 -4t12.5 -8.5t6.5 -14.5zM214 287q-18 0 -34.5 -7t-27.5 -15t-25.5 -29t-28 -50t-22.5 -63t-9 -68q0 -33 15.5 -53.5t56.5 -20.5q33 0 62 18.5t50.5 48t34 64.5t12.5 68q0 20 -5.5 39t-16 34t-26 24.5t-36.5 9.5z" />
    <glyph glyph-name="seven" unicode="7" horiz-adv-x="476" 
d="M364 108q1 -2 1 -5t-1 -4l-2 -1h1q-1 0 -31.5 -4t-84.5 -11q-23 -39 -37 -69.5t-22 -51t-11.5 -31.5t-4.5 -11q-4 2 -4 4t-1 4q0 16 9.5 50.5t42.5 102.5h-42h-24.5t-11 0.5t-2.5 1.5l-1 1q0 4 -2 12t-2 20q0 11 12 15.5t29 4.5q19 0 39 -3t29 -4q17 30 40 68t46 79
t44.5 82.5t36.5 79.5q-72 -36 -134 -72.5t-107.5 -70t-72 -62.5t-26.5 -49q1 0 6.5 -4.5t11.5 -10.5t11 -11.5t6 -7.5q-1 -7 -9 -12.5t-22 -5.5q-21 0 -39 16.5t-18 42.5q0 19 20.5 51.5t64 71.5t112.5 81.5t167 81.5q6 2 18 8t25 6q14 0 24 -10.5t10 -24.5q0 -7 -1 -10
q-12 -35 -28.5 -66t-34.5 -60t-36.5 -56.5t-34.5 -55.5q-27 -40 -52 -82q35 -5 61.5 -10t30.5 -8h1z" />
    <glyph glyph-name="eight" unicode="8" horiz-adv-x="428" 
d="M369 305q20 -16 30 -41t10 -55q0 -46 -22.5 -94.5t-60 -88t-85 -65t-97.5 -25.5q-32 0 -55.5 12t-39 31.5t-23.5 44.5t-8 51q0 47 13 81.5t32 58.5t42 38.5t43 23t34.5 11t16.5 2.5q10 0 11 -5q-2 -5 -9.5 -6t-18.5 -4q-7 -2 -28.5 -11.5t-44 -30.5t-40.5 -57t-18 -90
q0 -46 21.5 -76.5t65.5 -30.5q45 0 85 25.5t70 61.5t47 76t17 70t-12.5 45t-29.5 21t-34 6h-27q-5 0 -16.5 2.5t-23.5 10t-21 21.5t-9 38q0 11 6 32.5t20 43t37.5 37.5t58.5 16t57.5 -22.5t22.5 -54.5q0 -31 -17 -47.5t-35 -16.5q-4 0 -15.5 2t-11.5 9q0 5 5 5q2 0 6 -0.5
t6 -0.5q3 0 8.5 1.5t10.5 5t9 11.5t4 22q0 17 -12 29.5t-30 12.5q-15 0 -29 -8.5t-25 -21.5t-17.5 -27.5t-6.5 -26.5q0 -10 3 -14t11 -6q33 0 60 -6t59 -26z" />
    <glyph glyph-name="nine" unicode="9" horiz-adv-x="371" 
d="M233 469q30 0 52.5 -14t37.5 -36.5t22.5 -51t7.5 -56.5q0 -50 -16 -84.5t-37 -56t-42 -32.5t-31 -13q-2 0 -5.5 1t-3.5 2t2 1q1 0 17.5 9t35.5 29t34.5 52t15.5 77q0 20 -5 43t-15 42.5t-26.5 32.5t-38.5 13q-38 0 -69 -25t-53 -60.5t-34 -75t-12 -68.5q0 -28 7.5 -45
t18 -26.5t23 -12.5t23.5 -3t13.5 2t5.5 5t10 5t28 2q11 0 26 -7t22 -30v-1q0 -1 0.5 -1.5t0.5 -1.5q0 -24 -11 -49t-24.5 -45t-26.5 -32.5t-17 -12.5q-3 0 -6 4v2q0 9 5 24t11 31.5t11.5 33t6.5 30.5q-7 -2 -20.5 -6t-35.5 -4q-24 0 -46 8.5t-39.5 26t-27.5 44t-10 62.5
q0 39 16 86t44.5 87.5t68 67.5t86.5 27z" />
    <glyph glyph-name="colon" unicode=":" horiz-adv-x="110" 
d="M58 60q4 1 4 -5t-2.5 -15t-6.5 -17t-7 -11q-6 2 -12.5 4.5t-10.5 7.5q-1 2 2 7.5t8 11.5t11.5 10.5t13.5 6.5zM96 190q4 1 4 -5t-2.5 -15t-6.5 -17t-7 -11q-6 2 -12.5 4.5t-10.5 7.5q-1 2 2 7.5t8 11.5t11.5 10.5t13.5 6.5z" />
    <glyph glyph-name="semicolon" unicode=";" horiz-adv-x="126" 
d="M112 190q4 1 4 -5t-2.5 -15t-6.5 -17t-7 -11q-6 2 -12.5 4.5t-10.5 7.5q-1 2 2 7.5t8 11.5t11.5 10.5t13.5 6.5zM14 -49q-4 -2 -2 9t7 25.5t10.5 27t8.5 15.5q6 -2 12.5 -4.5t10.5 -7.5q1 -2 -3.5 -12t-12 -21.5t-16 -21t-15.5 -10.5z" />
    <glyph glyph-name="equal" unicode="=" horiz-adv-x="338" 
d="M311 188q-5 -3 -21 -4.5t-57 -0.5q-20 0 -49 2t-56 4.5t-47.5 3.5t-23.5 0q-4 0 -4 1q-1 1 0 1.5t1 1.5q6 3 26 5t46.5 2.5t56 0.5h55h43.5t21 1q2 0 4 -2.5t3 -4.5q2 -2 3.5 -5.5t-1.5 -5.5q-5 -3 -21 -4.5t-57 -0.5q-20 0 -49 2t-56 4.5t-47.5 3.5t-23.5 0q-4 0 -4 1
q-1 1 0 1.5t1 1.5q6 3 26 5t46.5 2.5t56 0.5h55h43.5t21 1q2 0 4 -2.5t3 -4.5q2 -2 3.5 -5.5t-1.5 -5.5zM269 116q-5 -3 -21 -4.5t-57 -0.5q-20 0 -49 2t-56 4.5t-47.5 3.5t-23.5 0q-4 0 -4 1q-1 1 0 1.5t1 1.5q6 3 26 5t46.5 2.5t56 0.5h55h43.5t21 1q2 0 4 -2.5t3 -4.5
q2 -2 3.5 -5.5t-1.5 -5.5z" />
    <glyph glyph-name="question" unicode="?" horiz-adv-x="320" 
d="M67 109l-1 1q1 1 3 8.5t10 22t24 37.5t45 55q23 26 48.5 56t51.5 62l26 36q-8 4 -25 4q-39 0 -65 -13.5t-41.5 -32.5t-22 -40t-6.5 -36q0 -14 1.5 -23.5t1.5 -11.5q-5 -17 -17 -22v2v-2q-15 30 -15 66q0 25 9 50.5t28.5 45.5t50.5 32.5t76 12.5q5 0 14.5 -1.5t18.5 -4.5
t15.5 -8.5t6.5 -13.5q0 -2 -1.5 -5.5t-6.5 -14.5q-23 -31 -51 -60t-54 -55q-38 -37 -66 -71t-40 -53zM52 83q4 1 2 -9.5t-7 -25t-10.5 -27t-8.5 -15.5q-6 2 -12.5 4.5t-10.5 7.5q-1 2 3.5 12t12 21t16 20.5t15.5 11.5z" />
    <glyph glyph-name="A" unicode="A" 
d="M19 8q4 14 30.5 38t67.5 54.5t92.5 65t104 69.5t103 69t90.5 62t64 49t25 31v1q0 4 17 4q8 0 19.5 -0.5t21.5 -2t17 -4t7 -6.5q-1 -3 -13 -29.5t-32.5 -71t-48.5 -103.5t-61 -126q25 -3 40.5 -5.5t24 -4t11 -3t2.5 -3.5q0 -4 -4 -5q-2 0 -24.5 -3t-70.5 -6
q-51 -94 -82 -143.5t-31 -56.5q-2 -5 -3 -7t-3 -2q-5 0 -5 5q0 7 16.5 55.5t60.5 146.5q-49 -3 -98 -5t-81 -2q-23 0 -33 5.5t-10 32.5q0 10 5.5 12.5t13.5 2.5q55 0 110 -1.5t115 -7.5q12 30 28 64t33 68.5t32.5 67.5t24.5 59q-33 -24 -85 -57.5t-112 -70.5t-122.5 -75
t-115.5 -70.5t-91 -56.5t-50 -34z" />
    <glyph glyph-name="B" unicode="B" horiz-adv-x="539" 
d="M24 47q-5 0 -5 6v1q1 1 2 3l2 4q4 7 18 30t32.5 53.5t40 65t40 64t31.5 50t16 23.5l2 1q4 0 10 -2q5 -2 11.5 -4t14.5 -7q6 -3 6 -8q0 -8 -10.5 -24t-37.5 -56l26 4q29 4 74 14t87.5 24.5t73 33t30.5 40.5q0 7 -7 11.5t-17 6.5t-22.5 2.5t-22.5 0.5q-69 0 -125.5 -11
t-97.5 -25t-65 -27t-29 -18q-4 -2 -19 -7t-26 -5q-12 0 -12 8q0 10 18 32.5t61 45.5t114 41t176 18q12 0 33 -2.5t41.5 -9t36 -19.5t15.5 -34q0 -27 -12.5 -47.5t-32 -36.5t-43 -27.5t-45.5 -20.5q16 -5 35 -12.5t34.5 -20t26 -31t10.5 -43.5q0 -20 -6.5 -39t-15.5 -34
q-26 -43 -62 -70t-75 -42t-78 -20.5t-71 -5.5q-12 0 -38 2.5t-52.5 10t-48 21.5t-25.5 36q0 4 4 4q5 -1 7.5 -10t14.5 -19t40 -18t85 -8q41 0 90 11t102 41q16 9 33 23.5t30.5 32.5t22 39t8.5 42q0 23 -14 38.5t-35.5 24.5t-46.5 12.5t-46 3.5q-42 0 -87 -5t-92 -13
q-21 -25 -43.5 -50.5t-42 -46t-31.5 -33l-12 -12.5l-1 -1h-3v0z" />
    <glyph glyph-name="C" unicode="C" horiz-adv-x="311" 
d="M462 438q0 -12 -6 -15.5t-14 -3.5q-7 0 -14 1t-14 1q-13 0 -31 -2t-42 -9t-55 -20.5t-69 -37.5q-23 -14 -50.5 -39.5t-52.5 -58.5t-41.5 -72t-16.5 -79q0 -36 13 -61t32.5 -41t43 -23.5t44.5 -7.5q35 0 55 6.5t24 7.5h2q1 0 1.5 0.5t1.5 0.5q5 0 5 -5l-4.5 -4.5
t-15.5 -10t-30.5 -10t-49.5 -4.5q-24 0 -52 9.5t-52 29t-40 49.5t-16 72q0 47 17 92t46 85.5t68 75t84 59t92.5 38.5t94.5 14h13t13.5 -3.5t11 -11t4.5 -22.5z" />
    <glyph glyph-name="D" unicode="D" horiz-adv-x="463" 
d="M57 227q-2 0 -8 3t-13 9.5t-12 16t-5 23.5t7 27.5t18 25t25 22t29 18.5q18 10 43 23.5t57 25.5t72 20t89 8q22 0 52 -5.5t57 -20.5t46 -41.5t19 -68.5q0 -33 -13 -62q-26 -62 -70 -120.5t-95.5 -104.5t-105.5 -73.5t-100 -27.5q-32 0 -54 13.5t-36.5 30t-21.5 30.5l-8 16
l-2.5 5t-1.5 6q0 4 4 5q5 -2 9.5 -10t12.5 -19q4 -6 12 -15t20 -18t29 -15.5t38 -6.5q34 0 83 29t97.5 77t90.5 109t62 125q4 13 4 28q0 18 -9 33t-24 25.5t-34 16.5t-39 7q-71 -3 -129 -18t-98.5 -35.5t-62.5 -43.5t-22 -43q0 -8 -1.5 -19t-10.5 -11zM219 360
q1 0 11.5 -1.5t24.5 -11.5q6 -5 6 -9q0 -7 -11.5 -25.5t-42.5 -65.5q-17 -26 -37.5 -49.5t-42 -45.5t-43 -44.5t-40.5 -47.5l-1 -1q-3 0 -5.5 0.5t-2.5 5.5l2 4q1 2 2 3q4 7 18 30.5t32.5 54t40 65t40 64t31.5 50t16 23.5z" />
    <glyph glyph-name="E" unicode="E" horiz-adv-x="481" 
d="M141 -44q-21 2 -42.5 11t-39.5 25.5t-29.5 40t-11.5 55.5q0 40 17 76.5t45.5 67.5t65 53.5t75.5 33.5q-7 14 -7 32q0 35 20.5 58t49.5 36.5t59 18.5t50 5q40 0 61.5 -12.5t32 -28t12.5 -30.5t2 -19q0 -3 -2.5 -9t-7.5 -12.5t-11.5 -11.5t-14.5 -5q-14 0 -14 12t-0.5 26
t-10 26t-42.5 12l-20.5 -2.5t-45.5 -9t-45.5 -18t-20.5 -30.5q0 -12 9 -27q19 3 39 3q12 0 32 -1.5t39.5 -7.5t33.5 -18t14 -33q0 -16 -7 -26t-17 -15.5t-20.5 -7.5t-16.5 -2q-32 0 -66 17t-57 40q-32 -5 -66.5 -22.5t-63 -44t-47 -59.5t-18.5 -68q0 -38 17 -59.5t42 -32.5
t54 -14t52 -3q48 0 89 8.5t71.5 18.5t49 18.5t20.5 8.5q3 3 10 3q4 0 4 -3q-1 -4 -12.5 -10.5t-25.5 -11.5q-10 -3 -29.5 -12.5t-48 -19t-65 -17t-79.5 -7.5q-14 0 -30 1t-32 3zM371 275q-18 6 -39 9q8 -5 19 -6.5t20 -2.5z" />
    <glyph glyph-name="F" unicode="F" horiz-adv-x="442" 
d="M582 478q17 -3 24.5 -16t7.5 -30t-3 -35.5t-11 -34.5t-22 -26.5t-35 -10.5q-15 0 -26 2t-24 2q-51 -72 -96 -144q28 -8 46 -15t19 -9l1 -1q1 -1 1 -3q0 -8 -14 -9.5t-25 -1.5q-12 0 -25 1t-25 2q-29 -48 -51 -90t-37.5 -74t-24 -51.5t-8.5 -22.5l-3 -1l3 -1l-1 -5
q-2 -3 -2.5 -4.5t-4.5 -2.5q-2 0 -2.5 1.5t-1.5 2.5q0 4 3.5 20t14.5 45.5t31 74.5t53 109q-31 2 -54 4.5t-27 7.5v1q0 1 -0.5 2.5t-0.5 3.5q0 29 4 35.5t10 6.5q5 0 28 -2t64 -15q19 34 39.5 69t43.5 72q-75 11 -141.5 24.5t-123.5 13.5q-55 0 -85.5 -15.5t-30.5 -35.5
q0 -14 12.5 -22.5t18.5 -18.5v-1q0 -6 -6 -10.5t-20 -4.5q-21 0 -38.5 13t-17.5 41q0 24 13.5 44t36 34t52.5 22t64 8q60 0 130.5 -14t166.5 -31q8 12 18 27.5t23 30.5t27.5 25.5t31.5 12.5zM556 380q3 9 7 20t4 21q0 -2 -5 -7.5t-11.5 -13t-12.5 -14.5t-9 -10q8 0 17.5 0.5
t9.5 2.5v1z" />
    <glyph glyph-name="G" unicode="G" horiz-adv-x="458" 
d="M129 -52q-48 5 -80 43t-32 98q0 76 36.5 143t95 117t132 79.5t148.5 29.5q30 0 48 -6t18 -33q0 -14 -15 -14q-7 0 -17.5 1t-25.5 1q-72 0 -142 -29t-127 -82q-18 -17 -36.5 -38.5t-34 -48.5t-25.5 -58.5t-10 -67.5q0 -103 115 -103q49 0 89 20.5t70 47.5q32 56 50 93
t29.5 59t21.5 31t25 9q6 0 16.5 -4t10.5 -12q0 -5 -5 -14t-16 -28.5t-29 -51.5t-44 -81q39 11 53 14t17 3q6 0 9 -3q0 -4 -2.5 -6t-12.5 -5.5t-28.5 -10t-49.5 -18.5q-5 -10 -10.5 -20t-11.5 -21q-8 -13 -23.5 -41t-35.5 -57t-44 -51t-48 -22q-20 0 -32.5 18t-12.5 41
q0 24 11.5 44t25.5 34q-17 -3 -32 -3q-18 0 -39 3zM213 -96q-10 -17 -10 -31q0 -9 4 -17l1 -2q12 8 24.5 24t24.5 34.5t23.5 38.5t20.5 35q-25 -14 -49.5 -35t-38.5 -47z" />
    <glyph glyph-name="H" unicode="H" horiz-adv-x="528" 
d="M65 110q-17 0 -32.5 14t-15.5 40q0 19 19.5 49t61.5 65.5t107 73t156 71.5q10 4 22.5 8.5t26.5 4.5q12 0 21 -6t11 -23q0 -26 -21.5 -63.5t-50 -79t-58 -81.5t-46.5 -70q24 -1 51 -3.5t53 -5.5t47.5 -6.5t34.5 -5.5q30 64 63 127.5t62 114t50.5 82t27.5 31.5q1 0 7 -1
t13 -3.5t13 -7t6 -10.5q0 -15 -21 -51.5t-52 -83.5t-67.5 -98.5t-67.5 -97.5t-52 -81t-21 -48q0 -3 1 -4q-1 -8 -7 -8q-4 0 -4 7t8.5 35.5t33.5 80.5q-15 -2 -39 -3.5t-52.5 -3.5t-59.5 -3.5t-59 -2.5q-21 -36 -34 -63t-20.5 -45t-10.5 -27t-4 -9q-3 0 -4 2t-1 3
q0 8 1.5 18.5t6.5 26.5t14.5 38.5t25.5 54.5q-9 0 -20 -0.5t-22 -0.5q-20 0 -29 3l-1 1q-2 4 -4 9q-3 9 -3 25q0 11 5 13.5t14 2.5q13 0 31.5 -0.5t56.5 -0.5q15 30 36 63t43 67.5t42 70t33 69.5q-58 -24 -115.5 -55.5t-103.5 -63.5t-74.5 -60t-28.5 -44q2 -6 7.5 -10.5
t11 -8.5t10 -8t4.5 -8q-2 -16 -37 -16z" />
    <glyph glyph-name="I" unicode="I" horiz-adv-x="282" 
d="M17 -21q0 11 15.5 14.5t33.5 3.5q13 0 24.5 -1t18.5 -1q24 52 54 102t61.5 98.5t63 97.5t60.5 100q-32 -1 -56.5 -2t-35.5 -1q-4 0 -6 1l-2 1q-3 5 -5 12q-5 12 -5 31q0 6 17 8t46 2q38 0 89 -4t96.5 -9.5t77 -10l31.5 -4.5l1 -1q3 -2 3 -5t-3 -4h-1q-2 -1 -4 -1h-4
q-6 -1 -23.5 -2t-42 -2.5t-54 -3t-59.5 -2.5q-8 -17 -23.5 -43.5t-44.5 -71.5q-19 -30 -48.5 -70t-60 -81t-59 -77.5t-45.5 -59.5q21 -3 42.5 -7t39 -8t28 -7.5l10.5 -3.5l1 -1q2 -2 2 -4t-2 -4l-2 -1l-4 -1q-5 -1 -23 -2.5t-41 -3t-49 -3t-48.5 -3l-37.5 -2.5t-17 -1h-2v2
l-3 9q-2 5 -3 11.5t-1 15.5z" />
    <glyph glyph-name="J" unicode="J" horiz-adv-x="314" 
d="M268 162q41 64 82 127.5t66 126.5q-2 -1 -4.5 -2t-4.5 -2q-58 -23 -110.5 -50.5t-92 -53.5t-62.5 -46.5t-23 -30.5q0 -3 8 -9.5t8 -14.5q0 -11 -17 -11q-4 0 -11 3t-13.5 8t-11 13t-4.5 19q0 18 22.5 42.5t57 50.5t77 51t82 45t72 32.5t47.5 12.5q20 0 28.5 -15.5
t8.5 -26.5q0 -10 -4.5 -21t-6.5 -19q-18 -41 -44 -82.5t-56 -86t-62 -92t-63 -98.5q31 8 46 9.5t15 2.5t-1 1h6h4.5t5.5 -4q-2 -3 -25.5 -10.5t-62.5 -18.5q-12 -10 -26 -29t-28.5 -42.5t-30 -48t-30.5 -44t-29.5 -32.5t-27.5 -13q-20 0 -28.5 17.5t-8.5 36.5q0 33 18 58.5
t43.5 44.5t53 32t46.5 21q23 38 45.5 75t45.5 74zM130 -67q8 13 16 26.5t16 27.5q-13 -7 -33 -19.5t-38.5 -29.5t-32 -37t-13.5 -42q0 -8 3 -17l1 -2q0 -1 3 -4q20 11 40 39.5t38 57.5z" />
    <glyph glyph-name="K" unicode="K" horiz-adv-x="440" 
d="M64 142q-19 4 -34 15.5t-15 38.5t16 48.5t43.5 41.5t64.5 40.5t80 44.5q12 7 37.5 20.5t54 27t55 23.5t40.5 10q9 0 21.5 -4.5t12.5 -18.5q0 -21 -17 -57t-41 -75t-49 -74.5t-41 -55.5q54 34 101.5 71t84 68.5t60.5 53t30 24.5h1h1q1 0 2 0.5t3 0.5q1 0 7.5 -1t13 -3.5
t12 -6.5t5.5 -11q0 -4 -7 -13t-29 -28.5t-62.5 -53t-106.5 -85.5q-23 -16 -49.5 -35t-60.5 -36q0 -1 1 -2q27 -39 51 -73.5t42 -61t29 -43t13 -18.5q0 -1 1.5 -4t1.5 -5q0 -4 -4 -4q-2 0 -8 7t-23.5 28.5t-49.5 60t-85 101.5q-8 -2 -15 -5t-15 -5q-29 -40 -45.5 -65.5
t-25.5 -39.5t-13 -19.5t-7 -5.5q-2 0 -2 5q0 7 4 17t12 24.5t20.5 35.5t30.5 50q-13 4 -22 13.5t-9 28.5q0 20 14 35.5t32 15.5q11 0 18.5 -5.5t12.5 -11.5q16 25 34.5 53.5t36.5 58t34.5 60t28.5 60.5q-35 -15 -70.5 -32.5t-69.5 -35.5t-65 -36.5t-56 -34.5
q-36 -23 -49.5 -36.5t-13.5 -29.5l3 -2h-1q8 -2 21 -10t13 -19q0 -9 -9 -15t-22 -6q-5 0 -8 1zM221 132q4 0 13 3q-2 3 -7 8q-6 -6 -6 -10v-1z" />
    <glyph glyph-name="L" unicode="L" horiz-adv-x="284" 
d="M272 469q20 2 27.5 -7.5t9.5 -23.5q2 -22 -23.5 -70t-65.5 -109t-87.5 -128t-90.5 -125q-2 -5 -7 -10q11 4 22 7.5t25 5.5q15 2 30 1t30 -3q28 -2 52.5 -2.5t39.5 1.5q8 2 10 2q5 0 12.5 -8t9.5 -29q1 -11 -9.5 -15t-24.5 -5q-22 -2 -43 2.5t-42.5 10t-43 10t-43.5 2.5
q-10 0 -18 -3.5t-15 -8t-11.5 -8t-6.5 -3.5q-6 -2 -6 4q-1 2 0.5 4t1.5 4v1q-4 7 13.5 40.5t46 80.5t62 101.5t63 104t48 88t17.5 53.5q0 6 -8 10t-8 6t3.5 5.5t9 6.5t11.5 5t9 2z" />
    <glyph glyph-name="M" unicode="M" horiz-adv-x="460" 
d="M292 -97q-3 -3 -5 -3q-5 0 -5 5v2q0 3 9.5 29t26 65t40 87t50.5 96q-31 -25 -66.5 -58t-67.5 -63t-56.5 -50.5t-33.5 -20.5q-3 0 -4.5 3t-1.5 14q0 9 2.5 38t7 69t14 86t16.5 88q-23 -36 -58 -82t-64 -88t-49.5 -72t-20.5 -36l-2 -5q-3 -3 -5 -3q-5 0 -5 5q0 3 1 7t2 7
q2 13 18.5 48.5t43.5 82.5t55.5 96.5t53.5 92t42 72.5t18 36q0 7 12 6q13 0 25 -4t12 -11q-1 -8 -2 -15.5t-3.5 -21.5t-7 -38t-12.5 -64q-6 -30 -16.5 -71t-24 -82.5t-23.5 -78t-15 -55.5q12 13 39.5 43t61 68t69 79.5t65 77.5t48.5 63t19 36q0 4 7 5.5t17 1.5q12 0 23.5 -3
t11.5 -10q0 -6 -3 -16.5t-10.5 -28t-20.5 -43t-32 -62.5q-20 -37 -52.5 -89t-64.5 -101t-55 -85.5t-23 -43.5z" />
    <glyph glyph-name="N" unicode="N" horiz-adv-x="364" 
d="M20 -19q-4 0 -4 5v1q0 13 13 51t32.5 87.5t42.5 104t43.5 102t34.5 81t17 40.5q0 2 6.5 3t15.5 1q10 0 18.5 -2.5t8.5 -8.5t-0.5 -6.5t-3 -12t-6.5 -41t-11 -93.5q-3 -24 -8 -55.5t-10 -65.5t-8.5 -68.5t-3.5 -64.5q0 -42 5 -67q5 16 24.5 52.5t45 83t54 97.5t52.5 96
t39.5 79.5t15.5 47.5q0 3 -1 5t-1 3v-1q2 2 6 5q4 2 11 4t19 2q5 0 10 -2.5t5 -8.5q0 -9 -2 -20.5t-8 -30t-18 -45t-31 -64.5q-13 -26 -34.5 -59t-45.5 -67t-48 -67t-43.5 -60t-31.5 -45t-12 -23q0 -8 -5 -8q-3 0 -9 8t-12.5 30t-11.5 60.5t-5 98.5q0 29 1.5 59.5t5.5 58.5
q-20 -39 -45.5 -85t-47.5 -86.5t-37.5 -69.5t-15.5 -34l-1 -2q-3 -3 -5 -3z" />
    <glyph glyph-name="O" unicode="O" horiz-adv-x="421" 
d="M-18 119q5 43 20 86t39.5 83t58 74t75.5 59q16 9 35 18t40 16t41.5 10.5t39.5 1.5q40 -5 64 -29t36 -56.5t14 -68t-1 -63.5q-7 -58 -36.5 -114.5t-75 -99.5t-103 -66.5t-121.5 -15.5q-38 6 -53.5 18t-11.5 38q1 5 6 13.5t13 7.5q4 -1 8 -4t10 -7t14.5 -7.5t22.5 -4.5
q11 -2 26.5 -0.5t35.5 6.5q21 6 54 20.5t65.5 44.5t59.5 77t36 118q2 19 1 43.5t-8.5 46.5t-22 38t-38.5 19q-21 3 -45.5 -3t-47.5 -14q-56 -20 -97.5 -57t-70.5 -81t-46 -90t-22 -83q-3 -25 0 -45t8.5 -34.5t11 -23t8.5 -9.5q8 -8 11 -8.5t4 -4.5q-1 -3 -5 -3
q-12 1 -24 10.5t-20 28.5t-11 47.5t2 67.5z" />
    <glyph glyph-name="P" unicode="P" horiz-adv-x="514" 
d="M43 290q0 21 13.5 39.5t35 34t49 28t54.5 22t52 15.5t42 9v-1q-2 0 -2 2t4 4.5t18 2.5q9 0 21 -3q11 1 23 1.5t26 0.5q34 0 71.5 -5t68.5 -18.5t51.5 -37.5t20.5 -61q0 -6 -0.5 -11.5t-1.5 -11.5q-14 -72 -52.5 -123.5t-92.5 -84.5t-119.5 -49t-134.5 -16q-38 0 -67 3.5
t-47 8.5q-19 -28 -30 -44.5t-16 -25t-6.5 -11l-1.5 -2.5q-6 0 -6 6q0 9 6.5 26.5t29.5 57.5l-1 1l-3 2q-5 2 -6 6q1 3 2.5 3t2.5 1q2 0 3 -0.5t8 -2.5q19 33 44 74t51.5 83.5t51.5 82.5l45 72q4 8 7 12q-35 -9 -64.5 -23t-52 -28t-35 -25.5t-12.5 -15.5q-2 -5 -2 -9v-8
q0 -7 0.5 -12.5t0.5 -10.5q0 -11 -9 -11q-3 0 -9.5 3t-13 9.5t-12 16.5t-5.5 24zM321 389q-9 -17 -23.5 -43t-40.5 -65q-15 -23 -36 -52t-44 -59.5t-47 -61t-44 -57.5q34 -6 74 -6t82 6t82 19t75.5 33t61.5 49q32 35 57.5 76t25.5 84q0 25 -12 41t-31.5 25t-44.5 12.5
t-50 3.5q-23 0 -45.5 -1.5t-39.5 -3.5z" />
    <glyph glyph-name="Q" unicode="Q" horiz-adv-x="524" 
d="M134 270q18 34 48.5 71t69 67t83 48t89.5 12q38 -5 61 -28t34.5 -54t13.5 -64.5t-1 -59.5q-5 -39 -18.5 -74.5t-33.5 -65.5t-44 -54.5t-49 -41.5q-51 -33 -96 -41.5t-79 -4.5q-38 5 -51 17.5t-11 34.5q1 6 5 14t12 6q13 -1 26.5 -9.5t33.5 -10.5q24 -3 55 4q20 6 51 20
t61.5 42.5t56 73.5t33.5 111q3 19 1.5 42.5t-8 44.5t-20.5 36t-37 18q-20 2 -43.5 -3t-45.5 -13q-53 -19 -92.5 -54.5t-67 -77.5t-43.5 -85.5t-20 -78.5q-5 -45 5 -71.5t20 -34.5q15 -9 29 -21.5t26.5 -24t23.5 -20.5t21 -10q8 -1 15.5 1.5t14 6.5t11 7t6.5 3q5 -2 5 -9
l-3 -6t-10 -13t-19 -12t-29 -3q-21 3 -38 12t-32 19.5t-30 19.5t-31 11q-15 1 -25.5 -1t-18.5 -5t-14.5 -5.5t-13.5 -1.5l-6 3t-12 7.5t-11 11t-4 14.5q0 9 13.5 15t31.5 9t36.5 3.5t29.5 -0.5q3 0 5 -0.5t4 -0.5q-11 14 -17 45.5t-1 76.5q4 29 14.5 63t29.5 69z" />
    <glyph glyph-name="R" unicode="R" horiz-adv-x="504" 
d="M414 -51q-5 6 -19 21t-35 32.5t-49 34t-61 25.5q-38 13 -75.5 16.5t-65.5 4.5q-29 -38 -46.5 -62.5t-27 -38.5t-13 -19.5l-3.5 -5.5q-4 0 -4 5q0 10 12.5 37.5t44.5 82.5q-13 0 -18.5 10t-7.5 30q0 6 5 9q2 1 8 2q5 1 15.5 2t29.5 1q36 59 75 120.5t68 108.5
q-31 -6 -66.5 -24.5t-55.5 -45.5q-4 -6 -6 -12t-5 -11.5t-8 -9t-14 -3.5q-6 1 -11 10t-5 28q0 18 13.5 38t39 37.5t63.5 30.5t88 19q8 19 11 21t15 2q32 0 32 -12q0 -4 -1 -6q31 3 67 3q12 0 31 -0.5t41 -3t44.5 -9t40.5 -18.5t29.5 -31t11.5 -46q0 -36 -18.5 -66t-48 -53.5
t-66.5 -41.5t-74.5 -30t-71 -18.5t-56.5 -7.5q41 -19 70 -44t48 -48.5t29.5 -41t13.5 -20.5q0 -2 1.5 -4.5t1.5 -4.5q0 -3 -4 -3q-2 0 -6.5 4t-6.5 6zM148 133q14 -2 28.5 -3.5t29.5 -3.5q24 1 54.5 3.5t63.5 9.5t65.5 18.5t60.5 30.5q17 12 35.5 27.5t33.5 33t25 36
t10 36.5t-13 29.5t-33 18t-45.5 9t-50.5 2.5q-33 0 -61 -2.5t-39 -4.5q-17 -31 -58.5 -94.5t-105.5 -145.5z" />
    <glyph glyph-name="S" unicode="S" horiz-adv-x="516" 
d="M330 463q5 1 10 1h11q24 0 59.5 -7.5t68.5 -22.5t56 -37t23 -50q0 -13 -4.5 -24.5t-16.5 -11.5q-8 0 -16.5 15.5t-27.5 34.5t-53 34.5t-94 15.5q-4 0 -20 -2t-38.5 -5.5t-47.5 -10t-45.5 -15t-34.5 -20t-14 -26.5q0 -12 14.5 -26.5t38 -29.5t52 -30t55.5 -27
q20 -11 50 -24t57.5 -29.5t47 -37t19.5 -44.5q0 -27 -14 -47t-37 -34t-51.5 -23t-57.5 -14t-55 -7t-44 -2q-54 0 -91.5 7.5t-62 18t-36.5 20.5t-13 15l-2 3q-2 4 -2 5q0 4 3 4h1q8 -9 21 -18t34 -16t50 -11.5t69 -4.5q10 0 32 1.5t49 5t56 10.5t53.5 18.5t41 28t19.5 39.5
q0 12 -18 25.5t-45 27.5t-58.5 27.5t-58.5 25.5q-21 10 -50 22t-54.5 28.5t-43.5 38t-18 49.5q0 33 25.5 58t62 41.5t76.5 25.5t69 11z" />
    <glyph glyph-name="T" unicode="T" horiz-adv-x="200" 
d="M36 292q-2 0 -11.5 10.5t-9.5 29.5q0 6 9.5 8.5t36.5 3.5t76 1t129 1q25 35 35 55.5t15.5 31.5t10 14t17.5 3q5 0 17 -1.5t12 -10.5q0 -8 -10.5 -29.5t-35.5 -62.5q134 -2 268.5 -8.5t268.5 -20.5q7 0 9 -6q-2 -5 -7 -5.5t-11 -0.5q-2 0 -27.5 -0.5t-68 -1.5t-98 -2
t-117 -2.5t-125.5 -2.5t-123 -2q-15 -22 -40 -56.5t-53.5 -73t-58 -77.5t-53.5 -71.5t-39 -54.5t-15 -26q-5 -9 -8 -9t-4 2t-1 4q2 3 3 7q2 8 3 10q3 15 24 52t50.5 85.5t64 103t65.5 103.5q-81 -1 -135 -1h-62h-1v0z" />
    <glyph glyph-name="U" unicode="U" horiz-adv-x="390" 
d="M109 -15q-13 2 -29 5.5t-30.5 12.5t-24.5 25.5t-10 45.5q0 28 8.5 58t21 58.5t26.5 54t25 45.5q19 33 33.5 60.5t27.5 47t25.5 30.5t26.5 11q15 0 30 -11q-2 -14 -13.5 -30t-31 -45.5t-47 -78t-63.5 -128.5q-21 -36 -21 -63q0 -55 86 -55q33 0 69 24t71 60t67 79.5
t58 81.5t43.5 66t23.5 34l2 3q3 3 6 3q4 0 4 -4l-4 -8.5t-15 -30.5t-32.5 -60t-57.5 -98q-18 -30 -41.5 -64t-53 -63.5t-66 -49t-80.5 -19.5q-16 0 -34 3z" />
    <glyph glyph-name="V" unicode="V" horiz-adv-x="253" 
d="M76 378q0 7 8 10t17.5 2.5t17.5 -4.5t8 -11q0 1 -9.5 -25t-21 -71t-21 -105.5t-9.5 -128.5v-15.5t1 -17.5t2 -14t4 -5q5 4 13.5 12.5t16.5 17.5q33 41 66 87.5t63 92.5t56 89t45.5 76t30.5 53.5t12 22.5q4 8 9 8q3 0 3 -5q0 -2 -3.5 -11t-5.5 -14q-8 -16 -29 -60.5
t-53.5 -105.5t-75.5 -133t-94 -143q-3 -3 -8 -9.5t-12.5 -12.5t-16.5 -11t-19 -5q-20 0 -31 11t-16.5 26.5t-7 32.5t-1.5 30q0 64 8 122.5t18 103.5t20 74.5t15 36.5v-1v0z" />
    <glyph glyph-name="W" unicode="W" horiz-adv-x="526" 
d="M81 19q-20 -2 -33 8t-21 26t-11 36.5t-3 40.5q0 55 16 103t35.5 83.5t37.5 57.5t21 27q1 1 6.5 5t6.5 -3q-1 -3 -3 -7q-2 -3 -3.5 -6.5t-3.5 -5.5q-5 -8 -17 -29t-25.5 -52t-23.5 -69.5t-10 -81.5q0 -9 1 -23.5t4.5 -29t10.5 -25t19 -10.5q20 0 43.5 20.5t46 49t41.5 57
t30 45.5q22 38 32.5 62t17.5 37.5t14 18t22 4.5q5 0 14 -2t9 -10q0 -20 -16.5 -53t-36.5 -74t-36.5 -87.5t-16.5 -93.5q0 -18 4.5 -33.5t18.5 -15.5q30 0 65.5 26t71.5 66.5t68.5 89t55.5 93.5q16 37 31.5 75t25.5 71t13 59.5t-5 42.5l-1 3v1v3q1 2 1 4t4 4q2 -1 7.5 -19
t5.5 -41q0 -19 -10 -65.5t-30 -105.5t-49 -122.5t-66.5 -116t-84 -86.5t-100.5 -34q-21 0 -36 9t-24 23t-13.5 31.5t-4.5 35.5q0 13 1 26t4 24q-10 -11 -23.5 -23t-29 -22t-33 -16t-35.5 -6z" />
    <glyph glyph-name="X" unicode="X" horiz-adv-x="304" 
d="M441 449q7 0 19 -4t12 -14q-1 -4 -9 -16.5t-35 -46.5t-79 -95.5t-140 -162.5q16 -35 33.5 -75.5t31.5 -75t23.5 -59t11.5 -28.5q2 -5 -1.5 -7.5t-5.5 -0.5q-1 0 -11.5 16t-27.5 44t-40 66.5t-48 82.5q-38 -43 -80 -87.5t-82 -87t-77 -79.5t-65.5 -65t-47 -44.5
t-21.5 -17.5q-4 -2 -7.5 -2t-3.5 4q0 5 6 10t11 10q13 12 47.5 51t81.5 94.5t102 122.5t111 135q-30 52 -51.5 91t-24.5 46v1v1q0 2 3.5 7t8 10t11 8.5t12.5 3.5q3 0 7.5 -4.5t13 -18t21.5 -38t34 -65.5q44 54 84.5 103t72.5 88t53 64t27 31q2 2 5 3t14 1z" />
    <glyph glyph-name="Y" unicode="Y" horiz-adv-x="428" 
d="M488 314q11 -2 8.5 -19t-21.5 -55t-54 -100.5t-89 -156.5q39 17 65.5 25t34.5 8q3 0 7.5 -0.5t5.5 -5.5q0 -3 -6 -5q-1 0 -10 -2t-11 -3v-1q-12 -3 -41 -15.5t-68 -36.5q-20 -30 -42.5 -63t-49.5 -68q-8 -10 -17.5 -23.5t-21.5 -26t-25 -21t-26 -8.5q-18 0 -24 11.5
t-6 16.5q1 29 15 53.5t35 45.5t46 38t48 32q11 17 21.5 34.5t21.5 34.5q-36 -27 -76 -35.5t-77 -8.5q-12 0 -32 1t-39 6.5t-33 18t-14 35.5q0 32 17 65.5t32 64.5q43 93 69 150t43.5 89t29.5 43t27 11q5 0 14 -3.5t9 -10.5q0 -8 -7 -22.5t-23 -45t-42.5 -82.5t-65.5 -134
q-6 -13 -15.5 -32l-18.5 -37t-15 -33t-6 -21t8.5 -9.5t22 -6t30 -3.5t31.5 -1q33 0 59.5 7.5t49.5 22t45 37t46 52.5q34 58 53.5 96.5t32.5 61t23.5 30.5t25.5 5zM137 -211q14 15 28 33.5t27 36.5q-17 -16 -31 -33t-24 -37z" />
    <glyph glyph-name="Z" unicode="Z" horiz-adv-x="240" 
d="M464 457q4 -8 0.5 -16t-6.5 -17q-17 -26 -36.5 -46t-39.5 -41q-42 -42 -85 -84t-84 -81q-57 -55 -100.5 -103t-65.5 -75q4 -2 22 -5.5t44 -8t55.5 -7.5t55.5 -3q8 0 13 0.5t6 0.5q5 0 6.5 -3.5t-0.5 -5.5l-10 -5t-26.5 -11t-38.5 -10.5t-46 -4.5q-23 0 -44 2.5t-37.5 6
t-26 8t-7.5 7.5v-1q-2 12 27.5 54t79 101.5t112.5 130.5t129 141q5 5 8.5 10t8.5 10q-52 -25 -97 -50.5t-78 -46.5t-51 -35.5t-16 -17.5q-3 -2 -2 -11t2 -19t0 -18.5t-9 -9.5q-12 0 -19.5 12t-12 26.5t-6 27.5t-1.5 16q-2 7 12 22t46.5 36.5t84 50t124.5 63.5
q15 7 29.5 14.5t38.5 13.5q9 2 21 0.5t20 -18.5z" />
    <glyph glyph-name="backslash" unicode="\" horiz-adv-x="280" 
d="M-90 484q0 10 10.5 11t15.5 1t13.5 -1t10.5 -6q3 -9 26 -48.5t56 -96t70.5 -122t69.5 -124.5t53 -105t21 -63q0 -1 -1 -3.5t-3 -2.5q-3 0 -7 9q-1 5 -15 26.5t-35.5 53.5t-48.5 71t-54 79t-52 77.5t-42 66.5q-27 45 -44 76t-26.5 51t-13.5 31.5t-4 18.5z" />
    <glyph glyph-name="grave" unicode="`" horiz-adv-x="228" 
d="M32 304q-8 5 -6 8.5t4 1.5q12 -5 36.5 -14.5t51.5 -17t51 -11t35 4.5q4 2 3 -3t-5 -11.5t-10.5 -12t-12.5 -5.5q-16 -3 -39 5t-45.5 19.5t-40.5 22t-22 13.5z" />
    <glyph glyph-name="a" unicode="a" horiz-adv-x="293" 
d="M182 221q4 0 8 -4.5t7 -10.5t5 -12.5t2 -10.5q0 -8 -6.5 -10t-21.5 -6.5t-40 -16.5t-62 -39q-8 -6 -16.5 -13.5t-16.5 -16t-13 -17.5t-5 -16q0 -8 8 -10.5t20 -2.5q24 0 48.5 12.5t41.5 25.5q5 21 14.5 38.5t17.5 30.5q10 15 21 28h-1l6.5 -2t14 -5t14 -7.5t6.5 -10.5
q-1 0 -9.5 -14t-18 -32t-17 -35.5t-7.5 -24.5q0 -2 1 -3q20 0 40 8t37 17.5t28 17.5t13 8t5.5 -0.5t3.5 -3.5q0 -10 -14 -25t-34.5 -29t-43 -24.5t-38.5 -12.5q-22 -2 -31 12t-12 33q-17 -14 -42 -28t-54 -14q-26 0 -44.5 16t-18.5 42q0 27 15 50t38 41.5t49 32.5t49 23.5
t38 14.5t15 6z" />
    <glyph glyph-name="b" unicode="b" horiz-adv-x="233" 
d="M257 388q-5 -9 -14.5 -22.5t-26 -35t-41 -53t-59.5 -75.5q10 5 24 10t29 5t23.5 -4.5t13.5 -11t6.5 -13.5t1.5 -12q0 -24 -8.5 -44.5t-21.5 -38t-28 -32.5l-27 -27q18 5 35.5 12t32 13t24.5 10.5t12 5.5l2 1q3 0 3 -2q0 -1 -2 -3.5t-4 -2.5q-5 -3 -23 -15.5t-44 -26
t-57 -24.5t-60 -11q-20 0 -32.5 10t-17.5 25q-6 -7 -13 -16t-19 -11q-9 0 -13.5 5.5t-5.5 13.5t1 17t7 15q23 37 50.5 77.5t55.5 79t54.5 74t47.5 63.5t35 46.5t16 23.5q7 7 20.5 3.5t21.5 -8.5q7 -4 5.5 -10t-4.5 -11zM167 167q-3 12 -20 3t-39.5 -28.5t-47 -44.5
t-40.5 -44q-3 -3 -4.5 -10t1 -13.5t9.5 -11t22 -1.5q13 2 32 16.5t38 36t33 47.5t16 50z" />
    <glyph glyph-name="c" unicode="c" horiz-adv-x="239" 
d="M16 3q-17 5 -28 23t-9 36q1 21 12.5 45t32.5 46t52.5 38t73.5 21q12 1 21 -3t15 -11t8.5 -15.5t1.5 -15.5q-2 -18 -6.5 -20.5t-9.5 1.5t-9 9.5t-5 4.5q-19 3 -44.5 -4.5t-48 -23t-38 -36.5t-15.5 -43q0 -14 18.5 -21t40.5 -7q39 0 72 11t57 24t37.5 24t12.5 10q3 2 7 2
t4 -4t-4.5 -8t-8.5 -9q-5 -5 -20.5 -18.5t-40.5 -27.5t-57.5 -25.5t-69.5 -11.5q-25 0 -52 9z" />
    <glyph glyph-name="d" unicode="d" horiz-adv-x="284" 
d="M435 388q-4 -9 -13 -20.5t-23 -28.5t-33.5 -41.5t-44.5 -60.5q-15 -20 -35.5 -45.5t-43 -53.5t-44 -57t-38.5 -57q6 1 20 6.5t21 10.5q45 23 66 38t25 15q5 3 8 0.5t0 -7.5l-7 -7t-16.5 -15t-32 -24.5t-51.5 -34.5q-6 -4 -15.5 -8.5t-20.5 -4.5q-4 0 -9 1t-10 5h-1
q-8 10 -9 15.5t-1 12.5q-5 -3 -13 -8t-19 -10t-24 -8.5t-26 -3.5q-8 0 -20 3t-23 9.5t-18.5 16.5t-7.5 24q0 26 22.5 56.5t54 57t66.5 44t60 17.5q18 0 30.5 -12t12.5 -27q30 38 59.5 78.5t53.5 73.5t39 54.5t17 21.5q0 3 5.5 3t12.5 -1t14.5 -3t10.5 -4q8 -4 6 -9t-5 -12z
M149 132q5 8 10 18.5t8 21.5q-9 -3 -32 -15.5t-48 -30.5t-46 -38.5t-26 -38.5q0 -5 9.5 -11t26.5 -6q23 0 43 8.5t35 17.5q-13 4 -13 13q0 8 9.5 21.5t23.5 39.5z" />
    <glyph glyph-name="e" unicode="e" horiz-adv-x="247" 
d="M20 3q-17 5 -27 23t-10 36q0 19 15 44t39.5 48.5t55 40t61.5 17.5q24 1 37 -15.5t7 -42.5q-8 -28 -25.5 -45.5t-37 -27.5t-38.5 -13.5t-30 -3.5q-9 0 -20.5 1t-16.5 10q-5 -4 -5.5 -9.5t-0.5 -10.5q0 -14 18.5 -21t40.5 -7q39 0 72 11t57 24t37.5 24t12.5 10q2 2 6.5 2.5
t4.5 -4.5q0 -4 -4.5 -9t-8.5 -8q-5 -5 -20.5 -18.5t-40.5 -27.5t-57.5 -25.5t-69.5 -11.5q-25 0 -52 9zM144 159q-16 -4 -37.5 -15t-41.5 -28q5 0 14.5 1t20.5 5t23 12.5t21 24.5z" />
    <glyph glyph-name="f" unicode="f" horiz-adv-x="197" 
d="M-96 -192q-14 1 -20.5 8.5t-8.5 18t-0.5 22t5.5 21.5q12 32 31 65t41 65.5t45 63t43 58.5q-4 5 -4 16q0 17 13 22.5t23 5.5q34 46 64.5 84.5t54 67t38.5 46.5t19 24q0 2 4.5 5.5t27.5 3.5q6 0 14.5 -2.5t8.5 -10.5q0 -7 -8.5 -19.5t-29 -37.5t-53 -65.5t-80.5 -103.5
q11 -5 19.5 -14t13.5 -24q17 1 28 1.5t16 0.5q4 0 9.5 -0.5t7.5 -5.5q-1 -3 -7.5 -4.5t-15.5 -2.5t-18.5 -1.5t-16.5 -1.5q-7 -34 -23 -70t-37 -70.5t-46 -65.5t-52 -54t-54 -35.5t-52 -10.5zM105 130q8 0 16 -0.5t16 -0.5q-7 12 -20 16zM91 112q-41 -60 -85.5 -119
t-80.5 -132q8 -2 26.5 9t41.5 31.5t48.5 47t46.5 55t35.5 56.5t16.5 51q-11 0 -22.5 0.5t-26.5 0.5z" />
    <glyph glyph-name="g" unicode="g" horiz-adv-x="251" 
d="M253 170q0 -8 -5 -16.5t-11.5 -16t-14 -14.5t-12.5 -13q-36 -38 -79 -82t-85.5 -92t-79.5 -99.5t-60 -105.5q7 7 13 14l12 14q94 110 148 174t62 69q8 7 10 7q4 0 4 -4q0 -2 -7 -10t-27 -33t-57.5 -73t-97.5 -131l-14 -21t-17.5 -23.5t-20.5 -19t-24 -7.5t-17.5 10
t-4.5 19q0 1 0.5 3.5t4.5 16.5q26 72 70.5 133t94.5 121q-1 0 -2 -0.5t-2 -0.5h-1q-35 8 -47 29t-12 43q0 33 20.5 61t45.5 47.5t46 29t21 5.5q4 1 11 0t13.5 -5t11.5 -10.5t5 -14.5q0 -14 -6.5 -14t-22.5 -5q-4 -2 -18.5 -8.5t-31 -17.5t-29.5 -27t-13 -37q0 -12 3.5 -18
t7.5 -6q10 0 24 10t30.5 25t33.5 34t32 37l35 43q5 6 12 9.5t23 5.5q14 2 19.5 -9.5t5.5 -25.5z" />
    <glyph glyph-name="h" unicode="h" horiz-adv-x="264" 
d="M273 77q2 2 5 1t3 -4t-5 -7.5t-10 -7.5l-16.5 -11t-33 -19.5t-44 -19t-50.5 -8.5q-3 0 -9 1t-12.5 4.5t-11.5 9.5t-5 16q0 18 17 38t36 38.5t32.5 33t6.5 20.5q-3 1 -8.5 -2t-11.5 -8t-12 -10.5t-11 -9.5q-43 -36 -76.5 -68.5t-56.5 -52t-36 -21t-15 22.5q0 8 2.5 14
t7.5 17q54 87 103 155t86 116t59 74t22 28q4 0 11 -0.5t13.5 -2t12 -5t6.5 -9.5q-2 -5 -10 -18t-28.5 -40.5t-57 -72.5t-93.5 -114l9.5 9.5t24 21t32 20.5t32.5 9q20 0 31.5 -12t11.5 -33q0 -22 -13.5 -42t-31.5 -37.5t-35.5 -32t-25.5 -24.5q15 -8 35.5 -4.5t41.5 12
t41 18.5t35 16z" />
    <glyph glyph-name="i" unicode="i" horiz-adv-x="192" 
d="M218 80q-6 -4 -30.5 -18.5t-56 -30.5t-63.5 -27t-53 -8q-17 1 -26.5 16t-9.5 28q0 14 11.5 39.5t26.5 51t30 44.5t23 19q1 0 11.5 -2t24.5 -13q5 -5 5 -9q0 1 -14.5 -17.5t-31 -42t-29 -45t-9.5 -26.5h1h2q27 0 60 8.5t61.5 19t48.5 19t21 8.5q2 1 5 -3.5t-7 -10.5h-1z
M89 204q-8 0 0.5 18t23.5 40t31 42t22 23q9 -5 19 -13.5t15 -18.5q0 -4 -12.5 -18.5t-30 -30.5t-36.5 -29t-32 -13z" />
    <glyph glyph-name="j" unicode="j" horiz-adv-x="185" 
d="M157 8q-3 0 -15.5 -6.5t-33 -23t-49.5 -45.5t-66 -74q-16 -20 -36 -47.5t-40 -53.5t-38 -45.5t-31 -22.5q-14 0 -25.5 3.5t-11.5 24.5q0 3 0.5 4t0.5 3v1q15 49 42.5 96.5t60.5 91.5t68 84t65 73q-3 1 -8.5 2.5t-11.5 5t-10 9t-4 13.5q0 7 4.5 9.5t15 7.5t29 16t47.5 36
q14 11 22.5 16.5t13.5 7t7 1t4 -1.5q14 -8 21 -19t-1 -26q-18 -32 -46.5 -64.5t-64 -71t-76 -85t-82.5 -107.5q-9 -9 -15.5 -20t-11.5 -23q10 11 19 21t18 21q39 46 77 83.5t70 63.5t54.5 40t30.5 14q2 0 7 -2t0 -10zM186 211q0 1 11 19.5t25.5 40t28.5 39t20 17.5
q1 0 6.5 -3t11.5 -8t10.5 -10.5t4.5 -10.5q0 1 -11 -13t-27.5 -31.5t-36.5 -32.5t-37 -14q-2 1 -3.5 2t-2.5 5z" />
    <glyph glyph-name="k" unicode="k" horiz-adv-x="242" 
d="M58 42q0 10 7 22l-64 -64q1 0 -4 -4t-16 -4q-15 0 -20.5 8t-5.5 19q0 7 2 11t3 5l4 8q50 71 96 133t81.5 109.5t58.5 77t27 35.5v1q-1 0 10.5 6t25.5 6q6 0 13 -3t7 -9t-9.5 -20t-29.5 -40t-50.5 -66.5t-73.5 -100.5q23 15 47.5 27t61.5 12q11 0 19.5 -13t4.5 -25
q-14 -42 -42 -70t-51 -48q39 -46 71 -82.5t54.5 -63t35 -41t12.5 -15.5q2 -2 5.5 -8t-3.5 -6q-3 0 -11.5 9.5t-29.5 32t-58 60.5t-97 96q-8 -6 -22.5 -14t-28.5 -8q-11 0 -18.5 5.5t-11.5 20.5v1zM226 396v1v-1zM158 142q-20 -14 -39.5 -30t-37.5 -33q11 8 26 9.5t27 -8.5
q8 6 18 16.5t19.5 22.5t17.5 24l14 21q-11 -2 -22.5 -8.5t-22.5 -13.5z" />
    <glyph glyph-name="l" unicode="l" horiz-adv-x="152" 
d="M18 67q-8 -10 -17.5 -23.5t-11.5 -18.5q31 7 59 18.5t49 23t34.5 19.5t16.5 9q5 2 7.5 -0.5t-1.5 -7.5q-16 -12 -37 -28.5t-44 -31t-46.5 -24.5t-44.5 -10q-17 0 -24 13t-6 23q1 12 7.5 22t12.5 19q24 37 52 75.5t57 75t56 69.5t49 59t36.5 43t17.5 21q0 3 15 3
q2 0 8 -0.5t12.5 -2.5t11 -5t4.5 -8q0 -3 -11.5 -16.5t-41.5 -49.5t-83 -99.5t-137 -167.5z" />
    <glyph glyph-name="m" unicode="m" horiz-adv-x="402" 
d="M275 33q0 23 12 46.5t21 45.5q-21 -16 -42 -36t-44 -39q-9 -8 -21 -18t-25 -19.5t-27 -16t-28 -6.5q-14 1 -25.5 12t-11.5 24t7 25.5t7 17.5q-9 -10 -21 -24t-25.5 -27t-27.5 -22t-27 -9q-9 0 -21 6.5t-10 26.5v1q2 17 7.5 31t11.5 26q20 42 33.5 65.5t23 34t17.5 12.5
t17 2q6 0 16.5 -3t10.5 -12q0 -5 -7 -17.5t-17.5 -29.5t-22.5 -36t-22 -36q13 14 30 36.5t36.5 44.5t40 40.5t40.5 25.5q7 3 16 2.5t16.5 -3.5t12.5 -10t5 -18q0 -7 -2.5 -11.5t-4.5 -6.5q-23 -35 -48.5 -62t-44.5 -61q40 20 75.5 49t70.5 57q11 9 21.5 18t25.5 9
q10 0 18 -5l2 -2q6 -3 -0.5 -19t-17 -36.5t-20.5 -41t-10 -32.5q0 -7 3.5 -10t8.5 -3q13 0 28 7t28 16.5t23.5 18t15.5 11.5q5 2 6 3.5t3 1.5q4 0 4 -4q-1 -3 -8.5 -11t-15.5 -15q-7 -6 -17 -14t-21 -15.5t-23 -12.5t-22 -5q-14 0 -24 8.5t-10 24.5z" />
    <glyph glyph-name="n" unicode="n" horiz-adv-x="291" 
d="M195 17q10 0 25 8.5t30 19t28 20.5t20 13q2 2 6 1.5t4 -4.5q0 -3 -4 -7q-5 -5 -16 -14t-37 -29q-11 -8 -27 -21t-31 -14q-17 0 -24 9.5t-7 19.5q0 13 7.5 29.5t17 34t20 34t16.5 31.5q-21 -9 -43 -24.5t-44 -34t-43.5 -38t-40.5 -35.5q-5 -3 -15.5 -13.5t-30.5 -10.5
q-19 0 -29 15t-10 27q0 23 13.5 41.5t20.5 27.5q40 51 65.5 75t24.5 25q3 2 10.5 1.5t15 -2.5t13.5 -6t6 -10t-6.5 -13.5t-18 -19.5t-27 -29.5t-34.5 -43.5q16 13 38.5 31.5t48 36t51.5 30t49 12.5q11 0 19.5 -8t8.5 -20q0 -18 -10 -37t-23.5 -38t-26 -36t-17.5 -32
q6 -2 7 -2z" />
    <glyph glyph-name="o" unicode="o" horiz-adv-x="244" 
d="M44 -15q-24 0 -44.5 15t-20.5 47q0 22 8.5 41.5t23.5 34t35 23.5t42 10h-1q1 26 16.5 44t44.5 18q25 0 44 -18.5t19 -46.5q0 -9 -2 -17.5t-5 -17.5q21 0 36.5 4t20.5 4q11 -2 -6 -16t-65 -22q-3 -5 -13.5 -21.5t-29 -34.5t-44.5 -32.5t-59 -14.5zM141 164q-4 -3 -4 -9
q0 -5 3.5 -12t12.5 -12q2 2 3 6.5t2 8.5q-2 0 -6.5 7t-10.5 12v-1zM89 142q-29 -5 -51.5 -29t-22.5 -56q0 -14 5.5 -22t16.5 -8q12 0 25.5 7t27 17.5t25 22.5t19.5 23q-14 5 -26.5 14.5t-18.5 30.5z" />
    <glyph glyph-name="p" unicode="p" horiz-adv-x="274" 
d="M25 -21q-14 -16 -50.5 -63.5t-87.5 -117.5q-9 -13 -21.5 -32t-26 -37t-28 -30.5t-28.5 -12.5q-16 0 -19.5 9.5t-3.5 20.5q0 27 18.5 64t44 74.5t53.5 72t46 56.5q-7 4 -12.5 11t-6.5 15q0 9 8 14q3 3 12 5.5t26 15t44.5 40t68.5 79.5q7 9 12 19.5t25 19.5q22 9 40 -10
q10 7 23 15t27 8q19 0 31.5 -12t12.5 -33q0 -22 -14 -42t-32 -37.5t-35.5 -32t-25.5 -24.5q6 -3 16 -3q12 0 32 4t40.5 10t38.5 14t26 17q2 2 6.5 2.5t4.5 -4.5q0 -2 -4.5 -6t-11.5 -9l-16.5 -11t-33 -19.5t-44 -19t-50.5 -8.5q-3 0 -9 1t-12.5 4.5t-11.5 9.5t-5 16
q0 11 5 20.5t12 17.5t14 13.5t10 9.5q15 17 30.5 35t21.5 34q-2 -1 -3 -2t-3 -2q-34 -24 -62 -50t-50.5 -48.5t-39 -39.5t-26.5 -22q-25 -25 -52 -54t-52.5 -61.5t-49 -67t-41.5 -70.5q3 3 4 5q43 53 82 99t69 80t49.5 54t22.5 21q2 2 8 2h5q0 -5 -7.5 -11.5t-13.5 -15.5z
" />
    <glyph glyph-name="q" unicode="q" horiz-adv-x="256" 
d="M107 124q-9 -5 -23.5 -13.5t-29 -18.5t-24.5 -21.5t-10 -22.5q2 -12 17.5 -9t33.5 12t35 20.5t22 16.5q16 19 26 30.5t16.5 18t11.5 9t12 2.5q5 0 8 -1q1 1 4 1q5 0 14 -7.5t8 -11.5q-2 -10 -13 -22t-36.5 -40.5t-67 -80t-103.5 -139.5q36 45 74 77.5t69.5 54t53.5 31.5
t26 10q15 2 7 -9q1 0 -15.5 -8.5t-47 -32t-72 -65.5t-90.5 -110q-7 -9 -15.5 -24t-18.5 -28.5t-20.5 -23.5t-21.5 -10q-13 0 -20 8.5t-7 21.5q0 19 3.5 32t9.5 25q32 62 69 115.5t71 97.5q-7 -3 -14.5 -6t-18.5 -3q-18 0 -35 11.5t-17 40.5q0 22 14 43t36 39.5t50 33.5
t57 26t55.5 17t46.5 6q12 0 18.5 -8.5t6.5 -22.5q0 -7 -3 -13.5t-8 -6.5h-12q-14 0 -45 -6.5t-87 -35.5z" />
    <glyph glyph-name="r" unicode="r" horiz-adv-x="202" 
d="M174 95q-12 -5 -18 4.5t0 27.5q3 10 5 14t3 5.5t0.5 3t-2.5 5.5q-26 6 -64 -26t-82 -98q-2 -2 -7 -9.5t-11 -16t-12 -14.5t-9 -6q-18 2 -20.5 5.5t-3.5 11.5q-1 11 5.5 25.5t15 28.5t17 25t11.5 16q36 54 49.5 79t12.5 26q3 2 12 2.5t19 -1t17.5 -4.5t7.5 -9q1 -6 -3 -14
t-14 -19.5t-25.5 -28.5t-38.5 -42q10 11 23.5 29.5t30.5 36t37 31t43 15.5q11 1 20 -6.5t10 -19.5q3 -36 -7.5 -54t-21.5 -23z" />
    <glyph glyph-name="s" unicode="s" horiz-adv-x="202" 
d="M163 56q0 -22 -11 -38t-27 -26.5t-34.5 -15t-34.5 -2.5q-24 0 -46.5 14t-28.5 40q-16 -12 -32 -14.5t-28 -2.5q-3 0 -6.5 2.5t-3.5 6.5q0 5 3.5 5.5t6.5 0.5q8 0 23 15t32 36.5t34 45t30 41.5q-5 9 -12.5 21.5t-7.5 31.5q0 2 1 7t5 10t10 8.5t17 3.5q10 0 21.5 -4
t21.5 -11.5t16.5 -17.5t6.5 -22q0 -11 -7.5 -20t-8.5 -11q2 -4 10.5 -19.5t19.5 -32t21.5 -29.5t17.5 -13h2q2 -1 3.5 -2t1.5 -4q0 -5 -7 -5q-2 0 -4.5 0.5t-4.5 0.5zM70 118l-14 -18t-15 -19q16 0 30.5 -1.5t28.5 -2.5q-11 12 -16.5 21t-13.5 20zM57 -2q14 -1 28.5 3.5
t24 12.5t12 19t-6.5 23q-2 1 -5 1q-8 0 -22.5 -1.5t-29.5 -4t-28.5 -5t-17.5 -5.5q-3 -2 -6.5 -8.5t-1 -14t14 -13.5t38.5 -7z" />
    <glyph glyph-name="t" unicode="t" horiz-adv-x="165" 
d="M684 249q0 -5 -3 -5q-14 -2 -44 -3.5t-71 -2.5t-90.5 -1t-102 -0.5t-105.5 -0.5h-101q-8 -12 -19 -25.5t-23 -30.5q-10 -14 -24.5 -31.5t-30 -36.5t-30.5 -38.5t-25 -38.5q-2 -5 -3 -6q2 -6 16 -3.5t34 10.5t42 18.5t40.5 20t30 15.5t9.5 5q5 4 7 0t0 -7
q-3 -4 -19.5 -16.5t-39.5 -27t-49.5 -27.5t-49.5 -19.5t-39.5 -3t-18.5 22.5q-6 16 7.5 44t35 60t45.5 63t39 52q-86 0 -88 3q0 -1 1 -1q-5 4 -9 10q-3 5 -5.5 12t-2.5 15q0 9 17.5 12t41 3.5t47 -1t34.5 -1.5q13 18 21.5 29t14.5 18t11 9.5t11 2.5q1 0 7 -0.5t12.5 -2.5
t11.5 -5t5 -8q0 -6 -10 -16.5t-21 -27.5q34 0 80.5 -2.5t97 -6t101 -7.5t92 -8t69.5 -6.5t34 -2.5q9 -1 9 -5z" />
    <glyph glyph-name="u" unicode="u" horiz-adv-x="265" 
d="M264 42q5 4 8 0.5t0 -8.5q-2 -2 -10 -9.5t-19.5 -16t-26 -15t-28.5 -6.5q-10 0 -15 4.5t-7.5 10t-3 10.5t-0.5 7q0 20 5 36.5t10 36.5q-13 -13 -28.5 -30.5t-33.5 -33t-38.5 -26.5t-42.5 -11q-8 0 -18.5 2.5t-19 9t-14 17t-4.5 25.5q1 18 10 39t20 41t22 36t16 22
t14.5 7.5t18.5 -0.5t16 -7t7 -12t-11 -22t-30 -42q-15 -22 -22.5 -34t-11 -19t-3.5 -11v-9q0 -1 1 -1q14 -8 30 -3t32.5 18t32.5 30.5t30 35t25 32t18 20.5q6 5 14.5 10t19.5 2q8 -4 7 -16.5t-5 -17.5v-1q-5 -15 -11.5 -32.5t-12 -33.5t-9.5 -30.5t-4 -23.5q0 -6 3 -8
q10 0 22 4t23 9q12 6 24 14z" />
    <glyph glyph-name="v" unicode="v" horiz-adv-x="195" 
d="M229 266q4 0 6 -4.5t2.5 -10.5t0 -12.5t-0.5 -10.5q0 -5 -10 -24t-26 -45.5t-37.5 -55.5t-45.5 -54t-49.5 -41t-49.5 -16h-10q-11 0 -20.5 8.5t-9.5 22.5q0 7 2.5 17.5t6.5 22.5t7.5 23t6.5 18q8 30 10.5 49t3.5 23v1q0 2 11 7.5t27 5.5q8 0 10 -4.5t2 -11.5
q0 -15 -3.5 -39t-18.5 -73q44 26 77.5 56t56 57t34 49t11.5 32q1 10 6 10z" />
    <glyph glyph-name="w" unicode="w" horiz-adv-x="340" 
d="M308 110q-11 -13 -30 -33.5t-41 -40t-43.5 -32.5t-37.5 -10v-1l-1 1q-17 3 -22.5 11.5t-5.5 16.5q0 5 1.5 10t5.5 16q-10 -9 -23.5 -18.5t-28.5 -17.5t-31 -13t-31 -5q-29 2 -38.5 17t-4.5 39q3 17 16 41.5t28 46.5t28 37.5t16 15.5l6.5 -1t14 -3.5t13.5 -6.5t6 -9
q-3 -11 -11.5 -21.5t-19.5 -24t-23 -31.5t-21 -45q-4 -17 7 -16.5t28 12.5t36.5 33t33.5 44q6 6 16 19t21.5 25.5t23.5 22t23 9.5q14 0 20 -4t6 -24q-2 -17 -10.5 -36t-20 -38.5t-25 -38.5t-25.5 -35q47 28 85.5 64t65.5 70t41.5 61t14.5 36q0 11 5 12q4 0 4.5 -7.5
t0.5 -13.5q0 -15 -16 -52.5t-57 -81.5z" />
    <glyph glyph-name="x" unicode="x" horiz-adv-x="235" 
d="M242 92q5 0 5 -7v-1q-5 -5 -17 -21t-28.5 -33t-35 -30.5t-35.5 -13.5q-21 0 -34.5 9t-22.5 22.5t-14.5 28.5t-9.5 27q-29 -19 -64.5 -43.5t-67 -46.5t-53.5 -37t-24 -15q-3 0 -6.5 1.5t-1.5 3.5q4 7 25 28t50 48t62.5 57t63.5 55q-1 4 -4 11.5t-5.5 15.5t-3 15t3.5 12
q5 4 11 8q5 3 11 6t14 3t10.5 -9.5t7.5 -25.5q25 19 39.5 29.5t16.5 10.5q9 -5 17 -10q6 -5 11.5 -11t5.5 -11q0 -4 -3.5 -8t-12.5 -11t-23.5 -18t-35.5 -27q3 -9 6.5 -22.5t8 -26t11 -21.5t15.5 -9t26 10.5t34.5 23t30.5 23t14 10.5h1h1v0z" />
    <glyph glyph-name="y" unicode="y" horiz-adv-x="291" 
d="M216 174q9 10 19 18.5t20 11.5t20 -2.5t18 -22.5v-2q0 -20 -22 -49t-55.5 -64.5t-72 -74t-71.5 -77.5q-32 -38 -65 -80.5t-53 -87.5q45 54 84.5 101t70.5 82t50.5 55.5t22.5 22.5q2 1 7.5 4t5.5 -3q0 -3 -7 -11t-25.5 -30.5t-50 -63t-80.5 -107.5q-17 -23 -34 -47.5
t-40 -47.5q-6 -6 -14.5 -8.5t-16 -1.5t-13.5 7.5t-7 18.5q0 28 22 69t52.5 84t62.5 82t52 63q-19 -10 -39 -16.5t-43 -6.5q-14 0 -22 5.5t-12 13t-5 14.5t-1 11q1 16 13.5 41t28 49.5t30 44t19.5 23.5q1 1 8 0t14.5 -4t14 -8t6.5 -11q0 -5 -4.5 -11t-14.5 -19.5t-25.5 -36
t-37.5 -60.5q1 0 17.5 5t43 19.5t60 40.5t69.5 67z" />
    <glyph glyph-name="z" unicode="z" horiz-adv-x="177" 
d="M184 178q15 -8 11 -24t-19 -27q-27 -19 -55 -31.5t-54 -21t-47.5 -14t-33.5 -9.5q7 -2 20 -5t25 -6t20 -7.5t5 -9.5q-5 -11 -14 -18.5t-24.5 -24.5t-41 -48.5t-63.5 -89.5q41 47 80 81t71 55.5t54 32t29 10.5q8 1 4 -5.5t-13 -11.5q-12 -3 -40.5 -25t-64.5 -58t-75.5 -84
t-73.5 -104q-9 -12 -19.5 -17.5t-19.5 -3t-15.5 12t-6.5 27.5q0 38 20.5 79t46.5 77.5t51.5 64t35.5 38.5q-8 6 -13.5 14t-3.5 20q2 8 17 17t41 20q-12 0 -17 3.5t-6.5 10.5t-0.5 16t0 21q-1 5 -2.5 7t-2.5 4.5t-1.5 6.5t-0.5 12q0 6 1.5 12t5.5 9q18 12 42.5 17t51 3.5
t51.5 -8.5t45 -18zM45 94q24 5 48 20.5t44 32.5q-44 6 -93 0q3 -14 3 -24q0 -19 -2 -29z" />
    <glyph glyph-name="exclamdown" unicode="&#xa1;" horiz-adv-x="300" 
d="M30.0176 -58.9746q0 4 2.5 10.499q2.5 6.5 7.5 17.499q4.99902 10.999 14.999 28.498q9.99902 17.499 24.998 42.498q13.999 23.998 38.998 58.4961q24.998 34.498 48.9971 66.9961q23.998 32.498 41.4971 56.4961q17.499 23.999 18.499 27.998q3 5 4 5
q1.99902 0 1.99902 -1v-2q0 -9.99902 -11.999 -35.4971q-11.999 -25.499 -29.498 -58.9971t-38.498 -69.9951q-20.998 -36.498 -39.4971 -67.9961t-31.498 -53.9971q-12.999 -22.498 -14.999 -27.498q-1 -3 -6 -3.5t-6.99902 -0.5q-3 0 -14 0.5q-10.999 0.5 -10.999 6.5z
M241.005 271.005q-4 -1 -2 9.5q2 10.499 7 24.998q4.99902 14.499 10.499 26.998q5.5 12.5 8.49902 15.499q6 -2 12.5 -4.49902q6.49902 -2.5 10.499 -7.5q1 -2 -3.5 -11.999q-4.5 -10 -11.999 -20.999q-7.5 -10.999 -15.999 -20.499q-8.5 -9.49902 -15.499 -11.499z" />
    <glyph glyph-name="dieresis" unicode="&#xa8;" horiz-adv-x="121" 
d="M31 231q-4 0 -3.5 10t3 22t6 22.5t6.5 12.5q13 -5 27 -17q1 -2 -2.5 -10t-9 -17t-13 -16t-14.5 -7zM70 231q-4 0 -4 10t2.5 22t6.5 22.5t7 12.5q14 -5 26 -17q1 -2 -2.5 -10t-9 -17t-12.5 -16t-14 -7z" />
    <glyph glyph-name="acute" unicode="&#xb4;" horiz-adv-x="234" 
d="M205 304q-4 -3 -20 -12.5t-37 -20.5t-43.5 -19.5t-39.5 -8.5q-11 0 -23.5 10t-12.5 21q0 2 2 2q4 0 10 -2.5t12 -2.5q38 0 79.5 12t75.5 31q3 0 3 -3q0 -4 -4 -7h-2z" />
    <glyph glyph-name="questiondown" unicode="&#xbf;" horiz-adv-x="320" 
d="M240.004 225.007l1 -1q-1 -1 -3 -8.5q-2 -7.49902 -9.99902 -21.998q-8 -14.499 -23.999 -37.498q-15.999 -22.998 -44.9971 -54.9961q-22.998 -25.999 -48.4971 -55.9971q-25.498 -29.998 -51.4961 -61.9961l-25.999 -35.998q8 -4 24.999 -4q38.9971 0 64.9961 13.5
q25.998 13.499 41.4971 32.498q15.499 18.998 21.999 39.9971q6.49902 20.999 6.49902 35.998q0 13.999 -1.5 23.498q-1.5 9.5 -1.5 11.5q5 16.999 16.999 21.998v-2v2q14.999 -29.998 14.999 -65.9961q0 -24.998 -8.99902 -50.4961q-9 -25.499 -28.498 -45.498
q-19.499 -19.998 -50.4971 -32.498q-30.998 -12.499 -75.9951 -12.499q-5 0 -14.5 1.5q-9.49902 1.5 -18.498 4.5q-9 3 -15.499 8.49902q-6.5 5.5 -6.5 13.499q0 2 1.5 5.5t6.49902 14.499q22.999 30.998 50.9971 59.9961q27.999 28.999 53.9971 54.9971
q37.998 36.998 65.9961 70.9961q27.998 33.9971 39.9971 52.9961zM255.003 251.005q-3.99902 -1 -2 9.5q2 10.499 7 24.998t10.499 26.998q5.5 12.5 8.5 15.499q5.99902 -2 12.499 -4.49902q6.5 -2.5 10.499 -7.5q1 -2 -3.49902 -11.999q-4.5 -10 -12 -20.999
q-7.49902 -10.999 -15.999 -20.499q-8.49902 -9.49902 -15.499 -11.499z" />
    <glyph glyph-name="Agrave" unicode="&#xc0;" 
d="M19 8q4 14 30.5 38t67.5 54.5t92.5 65t104 69.5t103 69t90.5 62t64 49t25 31v1q0 4 17 4q8 0 19.5 -0.5t21.5 -2t17 -4t7 -6.5q-1 -3 -13 -29.5t-32.5 -71t-48.5 -103.5t-61 -126q25 -3 40.5 -5.5t24 -4t11 -3t2.5 -3.5q0 -4 -4 -5q-2 0 -24.5 -3t-70.5 -6
q-51 -94 -82 -143.5t-31 -56.5q-2 -5 -3 -7t-3 -2q-5 0 -5 5q0 7 16.5 55.5t60.5 146.5q-49 -3 -98 -5t-81 -2q-23 0 -33 5.5t-10 32.5q0 10 5.5 12.5t13.5 2.5q55 0 110 -1.5t115 -7.5q12 30 28 64t33 68.5t32.5 67.5t24.5 59q-33 -24 -85 -57.5t-112 -70.5t-122.5 -75
t-115.5 -70.5t-91 -56.5t-50 -34zM583 544q-8 5 -6 8.5t4 1.5q12 -5 36.5 -14.5t51.5 -17t51 -11t35 4.5q4 2 3 -3t-5 -11.5t-10.5 -12t-12.5 -5.5q-16 -3 -39 5t-45.5 19.5t-40.5 22t-22 13.5z" />
    <glyph glyph-name="Aacute" unicode="&#xc1;" 
d="M19 8q4 14 30.5 38t67.5 54.5t92.5 65t104 69.5t103 69t90.5 62t64 49t25 31v1q0 4 17 4q8 0 19.5 -0.5t21.5 -2t17 -4t7 -6.5q-1 -3 -13 -29.5t-32.5 -71t-48.5 -103.5t-61 -126q25 -3 40.5 -5.5t24 -4t11 -3t2.5 -3.5q0 -4 -4 -5q-2 0 -24.5 -3t-70.5 -6
q-51 -94 -82 -143.5t-31 -56.5q-2 -5 -3 -7t-3 -2q-5 0 -5 5q0 7 16.5 55.5t60.5 146.5q-49 -3 -98 -5t-81 -2q-23 0 -33 5.5t-10 32.5q0 10 5.5 12.5t13.5 2.5q55 0 110 -1.5t115 -7.5q12 30 28 64t33 68.5t32.5 67.5t24.5 59q-33 -24 -85 -57.5t-112 -70.5t-122.5 -75
t-115.5 -70.5t-91 -56.5t-50 -34zM825 542q-4 -3 -20 -12.5t-37 -20.5t-43.5 -19.5t-39.5 -8.5q-11 0 -23.5 10t-12.5 21q0 2 2 2q4 0 10 -2.5t12 -2.5q38 0 79.5 12t75.5 31q3 0 3 -3q0 -4 -4 -7h-2z" />
    <glyph glyph-name="Acircumflex" unicode="&#xc2;" 
d="M19 8q4 14 30.5 38t67.5 54.5t92.5 65t104 69.5t103 69t90.5 62t64 49t25 31v1q0 4 17 4q8 0 19.5 -0.5t21.5 -2t17 -4t7 -6.5q-1 -3 -13 -29.5t-32.5 -71t-48.5 -103.5t-61 -126q25 -3 40.5 -5.5t24 -4t11 -3t2.5 -3.5q0 -4 -4 -5q-2 0 -24.5 -3t-70.5 -6
q-51 -94 -82 -143.5t-31 -56.5q-2 -5 -3 -7t-3 -2q-5 0 -5 5q0 7 16.5 55.5t60.5 146.5q-49 -3 -98 -5t-81 -2q-23 0 -33 5.5t-10 32.5q0 10 5.5 12.5t13.5 2.5q55 0 110 -1.5t115 -7.5q12 30 28 64t33 68.5t32.5 67.5t24.5 59q-33 -24 -85 -57.5t-112 -70.5t-122.5 -75
t-115.5 -70.5t-91 -56.5t-50 -34zM695 550q-3 -3 -15 -16t-27.5 -26.5t-31.5 -23.5t-27 -7q-4 0 -8.5 7t-7.5 15t-3.5 13.5t2.5 3.5q5 -5 12.5 -5.5t11.5 3.5h2q12 0 26 6t27.5 14t24 16t14.5 11q0 3 2 1q0 1 1 0.5t1 -1.5q4 -3 14.5 -11t24 -16t27.5 -14t26 -6h2
q4 -4 11.5 -3.5t12.5 5.5q3 2 2.5 -3.5t-3.5 -13.5t-7.5 -15t-8.5 -7q-11 -3 -27 7t-31.5 23.5t-27.5 26.5t-15 16h-2h-2z" />
    <glyph glyph-name="Atilde" unicode="&#xc3;" 
d="M19 8q4 14 30.5 38t67.5 54.5t92.5 65t104 69.5t103 69t90.5 62t64 49t25 31v1q0 4 17 4q8 0 19.5 -0.5t21.5 -2t17 -4t7 -6.5q-1 -3 -13 -29.5t-32.5 -71t-48.5 -103.5t-61 -126q25 -3 40.5 -5.5t24 -4t11 -3t2.5 -3.5q0 -4 -4 -5q-2 0 -24.5 -3t-70.5 -6
q-51 -94 -82 -143.5t-31 -56.5q-2 -5 -3 -7t-3 -2q-5 0 -5 5q0 7 16.5 55.5t60.5 146.5q-49 -3 -98 -5t-81 -2q-23 0 -33 5.5t-10 32.5q0 10 5.5 12.5t13.5 2.5q55 0 110 -1.5t115 -7.5q12 30 28 64t33 68.5t32.5 67.5t24.5 59q-33 -24 -85 -57.5t-112 -70.5t-122.5 -75
t-115.5 -70.5t-91 -56.5t-50 -34zM711 541q13 -4 25 -12.5t22.5 -16.5t19.5 -14t17 -6q13 0 23 9.5t13 9.5q5 0 5 -5q-4 -10 -9 -17q-5 -6 -13 -11t-22 -5q-17 0 -31 5.5t-27 12t-25 12t-25 5.5q-23 0 -33.5 -8t-20.5 -8l-5 1.5t-10 4.5t-9.5 7.5t-4.5 10.5q0 7 10 13
t23.5 10t27.5 6.5t23 2.5q2 0 3.5 -0.5t3.5 -0.5z" />
    <glyph glyph-name="Adieresis" unicode="&#xc4;" 
d="M19 8q4 14 30.5 38t67.5 54.5t92.5 65t104 69.5t103 69t90.5 62t64 49t25 31v1q0 4 17 4q8 0 19.5 -0.5t21.5 -2t17 -4t7 -6.5q-1 -3 -13 -29.5t-32.5 -71t-48.5 -103.5t-61 -126q25 -3 40.5 -5.5t24 -4t11 -3t2.5 -3.5q0 -4 -4 -5q-2 0 -24.5 -3t-70.5 -6
q-51 -94 -82 -143.5t-31 -56.5q-2 -5 -3 -7t-3 -2q-5 0 -5 5q0 7 16.5 55.5t60.5 146.5q-49 -3 -98 -5t-81 -2q-23 0 -33 5.5t-10 32.5q0 10 5.5 12.5t13.5 2.5q55 0 110 -1.5t115 -7.5q12 30 28 64t33 68.5t32.5 67.5t24.5 59q-33 -24 -85 -57.5t-112 -70.5t-122.5 -75
t-115.5 -70.5t-91 -56.5t-50 -34zM689 489q-4 0 -3.5 10t3 22t6 22.5t6.5 12.5q13 -5 27 -17q1 -2 -2.5 -10t-9 -17t-13 -16t-14.5 -7zM728 489q-4 0 -4 10t2.5 22t6.5 22.5t7 12.5q14 -5 26 -17q1 -2 -2.5 -10t-9 -17t-12.5 -16t-14 -7z" />
    <glyph glyph-name="Aring" unicode="&#xc5;" 
d="M19 8q4 14 30.5 38t67.5 54.5t92.5 65t104 69.5t103 69t90.5 62t64 49t25 31v1q0 4 17 4q8 0 19.5 -0.5t21.5 -2t17 -4t7 -6.5q-1 -3 -13 -29.5t-32.5 -71t-48.5 -103.5t-61 -126q25 -3 40.5 -5.5t24 -4t11 -3t2.5 -3.5q0 -4 -4 -5q-2 0 -24.5 -3t-70.5 -6
q-51 -94 -82 -143.5t-31 -56.5q-2 -5 -3 -7t-3 -2q-5 0 -5 5q0 7 16.5 55.5t60.5 146.5q-49 -3 -98 -5t-81 -2q-23 0 -33 5.5t-10 32.5q0 10 5.5 12.5t13.5 2.5q55 0 110 -1.5t115 -7.5q12 30 28 64t33 68.5t32.5 67.5t24.5 59q-33 -24 -85 -57.5t-112 -70.5t-122.5 -75
t-115.5 -70.5t-91 -56.5t-50 -34zM714 482q-5 -1 -2 11t8.5 27.5t12 29.5t9.5 17q6 -2 13 -6t12 -9q0 -2 -5 -12.5t-13.5 -22.5t-18 -22.5t-16.5 -12.5zM728 509q7 2 14.5 14t6.5 14q-2 2 -4.5 3t-4.5 2q-2 -1 -4.5 -6.5t-5 -11.5t-3.5 -10.5t1 -4.5z" />
    <glyph glyph-name="AE" unicode="&#xc6;" horiz-adv-x="923" 
d="M583 -44q-20 2 -41 10.5t-38.5 23.5t-29.5 37t-14 51q-27 -36 -51.5 -70.5t-44 -62t-31 -46t-11.5 -21.5q-2 -5 -3 -7t-3 -2q-5 0 -5 5q0 8 22.5 57.5t79.5 144.5q-49 -3 -98 -5t-81 -2q-23 0 -33 5.5t-10 32.5q0 10 5.5 12.5t13.5 2.5q55 0 110 -1.5t115 -7.5
q35 57 70.5 116t63.5 107q-32 -24 -85.5 -54.5t-115.5 -64t-126.5 -66.5t-119 -61.5t-94 -50t-51.5 -31.5q4 14 33 38t74.5 54t102 64t115 68.5t114.5 68t99.5 61.5t70.5 48.5t28 30.5v1q0 4 17 4t31.5 -2.5t14.5 -10.5q-1 -2 -3.5 -9.5t-9.5 -23.5t-20.5 -41t-35.5 -62
q25 13 55 22q-7 14 -7 32q0 35 20.5 58t49.5 36.5t59 18.5t50 5q40 0 61.5 -12.5t32 -28t12.5 -30.5t2 -19q0 -3 -2.5 -9t-7.5 -12.5t-11.5 -11.5t-14.5 -5q-14 0 -14 12t-0.5 26t-10 26t-42.5 12l-20.5 -2.5t-45.5 -9t-45.5 -18t-20.5 -30.5q0 -12 9 -27q19 3 39 3
q12 0 32 -1.5t39.5 -7.5t33.5 -18t14 -33q0 -16 -7 -26t-17 -15.5t-20.5 -7.5t-16.5 -2q-32 0 -66 17t-57 40q-40 -6 -83.5 -31.5t-72.5 -63.5l-15 -22q-9 -9 -14.5 -26.5t-7.5 -30.5q40 -5 50.5 -7t10.5 -6q0 -1 1 -1.5t1 -1.5q0 -2 -11.5 -4t-53.5 -5q1 -36 18.5 -57
t42.5 -31.5t53 -13t51 -2.5q48 0 89 8.5t71.5 18.5t49 18.5t20.5 8.5q3 3 10 3q4 0 4 -3q-1 -4 -12.5 -10.5t-25.5 -11.5q-10 -3 -29.5 -12.5t-48 -19t-65 -17t-79.5 -7.5q-14 0 -30 1t-32 3zM813 275q-18 6 -39 9q8 -5 19 -6.5t20 -2.5z" />
    <glyph glyph-name="Ccedilla" unicode="&#xc7;" horiz-adv-x="327" 
d="M462 438q0 -12 -6 -15.5t-14 -3.5q-7 0 -14 1t-14 1q-13 0 -31 -2t-42 -9t-55 -20.5t-69 -37.5q-23 -14 -50.5 -39.5t-52.5 -58.5t-41.5 -72t-16.5 -79q0 -36 13 -61t32.5 -41t43 -23.5t44.5 -7.5q35 0 55 6.5t24 7.5h2q1 0 1.5 0.5t1.5 0.5q5 0 5 -5l-4.5 -4.5
t-15.5 -10t-30.5 -10t-49.5 -4.5q-11 0 -22 2t-23 5q-2 -6 6.5 -14t11.5 -13q11 -16 0 -33q-8 -11 -22 -14.5t-26 3.5q-11 6 -11.5 15.5t8.5 17.5q3 2 4 2t-2 -5q-6 -8 -4 -14.5t8.5 -9.5t14.5 -3t14 5q19 15 4 33q-5 8 -13.5 16.5t-1.5 16.5q-20 7 -39 20t-34 31.5t-24 43
t-9 55.5q0 47 17 92t46 85.5t68 75t84 59t92.5 38.5t94.5 14h13t13.5 -3.5t11 -11t4.5 -22.5z" />
    <glyph glyph-name="Egrave" unicode="&#xc8;" horiz-adv-x="481" 
d="M141 -44q-21 2 -42.5 11t-39.5 25.5t-29.5 40t-11.5 55.5q0 40 17 76.5t45.5 67.5t65 53.5t75.5 33.5q-7 14 -7 32q0 35 20.5 58t49.5 36.5t59 18.5t50 5q40 0 61.5 -12.5t32 -28t12.5 -30.5t2 -19q0 -3 -2.5 -9t-7.5 -12.5t-11.5 -11.5t-14.5 -5q-14 0 -14 12t-0.5 26
t-10 26t-42.5 12l-20.5 -2.5t-45.5 -9t-45.5 -18t-20.5 -30.5q0 -12 9 -27q19 3 39 3q12 0 32 -1.5t39.5 -7.5t33.5 -18t14 -33q0 -16 -7 -26t-17 -15.5t-20.5 -7.5t-16.5 -2q-32 0 -66 17t-57 40q-32 -5 -66.5 -22.5t-63 -44t-47 -59.5t-18.5 -68q0 -38 17 -59.5t42 -32.5
t54 -14t52 -3q48 0 89 8.5t71.5 18.5t49 18.5t20.5 8.5q3 3 10 3q4 0 4 -3q-1 -4 -12.5 -10.5t-25.5 -11.5q-10 -3 -29.5 -12.5t-48 -19t-65 -17t-79.5 -7.5q-14 0 -30 1t-32 3zM371 275q-18 6 -39 9q8 -5 19 -6.5t20 -2.5zM317 547q-8 5 -6 8.5t4 1.5q12 -5 36.5 -14.5
t51.5 -17t51 -11t35 4.5q4 2 3 -3t-5 -11.5t-10.5 -12t-12.5 -5.5q-16 -3 -39 5t-45.5 19.5t-40.5 22t-22 13.5z" />
    <glyph glyph-name="Eacute" unicode="&#xc9;" horiz-adv-x="481" 
d="M141 -44q-21 2 -42.5 11t-39.5 25.5t-29.5 40t-11.5 55.5q0 40 17 76.5t45.5 67.5t65 53.5t75.5 33.5q-7 14 -7 32q0 35 20.5 58t49.5 36.5t59 18.5t50 5q40 0 61.5 -12.5t32 -28t12.5 -30.5t2 -19q0 -3 -2.5 -9t-7.5 -12.5t-11.5 -11.5t-14.5 -5q-14 0 -14 12t-0.5 26
t-10 26t-42.5 12l-20.5 -2.5t-45.5 -9t-45.5 -18t-20.5 -30.5q0 -12 9 -27q19 3 39 3q12 0 32 -1.5t39.5 -7.5t33.5 -18t14 -33q0 -16 -7 -26t-17 -15.5t-20.5 -7.5t-16.5 -2q-32 0 -66 17t-57 40q-32 -5 -66.5 -22.5t-63 -44t-47 -59.5t-18.5 -68q0 -38 17 -59.5t42 -32.5
t54 -14t52 -3q48 0 89 8.5t71.5 18.5t49 18.5t20.5 8.5q3 3 10 3q4 0 4 -3q-1 -4 -12.5 -10.5t-25.5 -11.5q-10 -3 -29.5 -12.5t-48 -19t-65 -17t-79.5 -7.5q-14 0 -30 1t-32 3zM371 275q-18 6 -39 9q8 -5 19 -6.5t20 -2.5zM505 545q-4 -3 -20 -12.5t-37 -20.5t-43.5 -19.5
t-39.5 -8.5q-11 0 -23.5 10t-12.5 21q0 2 2 2q4 0 10 -2.5t12 -2.5q38 0 79.5 12t75.5 31q3 0 3 -3q0 -4 -4 -7h-2z" />
    <glyph glyph-name="Ecircumflex" unicode="&#xca;" horiz-adv-x="481" 
d="M141 -44q-21 2 -42.5 11t-39.5 25.5t-29.5 40t-11.5 55.5q0 40 17 76.5t45.5 67.5t65 53.5t75.5 33.5q-7 14 -7 32q0 35 20.5 58t49.5 36.5t59 18.5t50 5q40 0 61.5 -12.5t32 -28t12.5 -30.5t2 -19q0 -3 -2.5 -9t-7.5 -12.5t-11.5 -11.5t-14.5 -5q-14 0 -14 12t-0.5 26
t-10 26t-42.5 12l-20.5 -2.5t-45.5 -9t-45.5 -18t-20.5 -30.5q0 -12 9 -27q19 3 39 3q12 0 32 -1.5t39.5 -7.5t33.5 -18t14 -33q0 -16 -7 -26t-17 -15.5t-20.5 -7.5t-16.5 -2q-32 0 -66 17t-57 40q-32 -5 -66.5 -22.5t-63 -44t-47 -59.5t-18.5 -68q0 -38 17 -59.5t42 -32.5
t54 -14t52 -3q48 0 89 8.5t71.5 18.5t49 18.5t20.5 8.5q3 3 10 3q4 0 4 -3q-1 -4 -12.5 -10.5t-25.5 -11.5q-10 -3 -29.5 -12.5t-48 -19t-65 -17t-79.5 -7.5q-14 0 -30 1t-32 3zM371 275q-18 6 -39 9q8 -5 19 -6.5t20 -2.5zM393 566q-3 -3 -15 -16t-27.5 -26.5t-31.5 -23.5
t-27 -7q-4 0 -8.5 7t-7.5 15t-3.5 13.5t2.5 3.5q5 -5 12.5 -5.5t11.5 3.5h2q12 0 26 6t27.5 14t24 16t14.5 11q0 3 2 1q0 1 1 0.5t1 -1.5q4 -3 14.5 -11t24 -16t27.5 -14t26 -6h2q4 -4 11.5 -3.5t12.5 5.5q3 2 2.5 -3.5t-3.5 -13.5t-7.5 -15t-8.5 -7q-11 -3 -27 7
t-31.5 23.5t-27.5 26.5t-15 16h-2h-2z" />
    <glyph glyph-name="Edieresis" unicode="&#xcb;" horiz-adv-x="481" 
d="M141 -44q-21 2 -42.5 11t-39.5 25.5t-29.5 40t-11.5 55.5q0 40 17 76.5t45.5 67.5t65 53.5t75.5 33.5q-7 14 -7 32q0 35 20.5 58t49.5 36.5t59 18.5t50 5q40 0 61.5 -12.5t32 -28t12.5 -30.5t2 -19q0 -3 -2.5 -9t-7.5 -12.5t-11.5 -11.5t-14.5 -5q-14 0 -14 12t-0.5 26
t-10 26t-42.5 12l-20.5 -2.5t-45.5 -9t-45.5 -18t-20.5 -30.5q0 -12 9 -27q19 3 39 3q12 0 32 -1.5t39.5 -7.5t33.5 -18t14 -33q0 -16 -7 -26t-17 -15.5t-20.5 -7.5t-16.5 -2q-32 0 -66 17t-57 40q-32 -5 -66.5 -22.5t-63 -44t-47 -59.5t-18.5 -68q0 -38 17 -59.5t42 -32.5
t54 -14t52 -3q48 0 89 8.5t71.5 18.5t49 18.5t20.5 8.5q3 3 10 3q4 0 4 -3q-1 -4 -12.5 -10.5t-25.5 -11.5q-10 -3 -29.5 -12.5t-48 -19t-65 -17t-79.5 -7.5q-14 0 -30 1t-32 3zM371 275q-18 6 -39 9q8 -5 19 -6.5t20 -2.5zM383 484q-4 0 -3.5 10t3 22t6 22.5t6.5 12.5
q13 -5 27 -17q1 -2 -2.5 -10t-9 -17t-13 -16t-14.5 -7zM422 484q-4 0 -4 10t2.5 22t6.5 22.5t7 12.5q14 -5 26 -17q1 -2 -2.5 -10t-9 -17t-12.5 -16t-14 -7z" />
    <glyph glyph-name="Igrave" unicode="&#xcc;" horiz-adv-x="282" 
d="M17 -21q0 11 15.5 14.5t33.5 3.5q13 0 24.5 -1t18.5 -1q24 52 54 102t61.5 98.5t63 97.5t60.5 100q-32 -1 -56.5 -2t-35.5 -1q-4 0 -6 1l-2 1q-3 5 -5 12q-5 12 -5 31q0 6 17 8t46 2q38 0 89 -4t96.5 -9.5t77 -10l31.5 -4.5l1 -1q3 -2 3 -5t-3 -4h-1q-2 -1 -4 -1h-4
q-6 -1 -23.5 -2t-42 -2.5t-54 -3t-59.5 -2.5q-8 -17 -23.5 -43.5t-44.5 -71.5q-19 -30 -48.5 -70t-60 -81t-59 -77.5t-45.5 -59.5q21 -3 42.5 -7t39 -8t28 -7.5l10.5 -3.5l1 -1q2 -2 2 -4t-2 -4l-2 -1l-4 -1q-5 -1 -23 -2.5t-41 -3t-49 -3t-48.5 -3l-37.5 -2.5t-17 -1h-2v2
l-3 9q-2 5 -3 11.5t-1 15.5zM323 541q-8 5 -6 8.5t4 1.5q12 -5 36.5 -14.5t51.5 -17t51 -11t35 4.5q4 2 3 -3t-5 -11.5t-10.5 -12t-12.5 -5.5q-16 -3 -39 5t-45.5 19.5t-40.5 22t-22 13.5z" />
    <glyph glyph-name="Iacute" unicode="&#xcd;" horiz-adv-x="282" 
d="M17 -21q0 11 15.5 14.5t33.5 3.5q13 0 24.5 -1t18.5 -1q24 52 54 102t61.5 98.5t63 97.5t60.5 100q-32 -1 -56.5 -2t-35.5 -1q-4 0 -6 1l-2 1q-3 5 -5 12q-5 12 -5 31q0 6 17 8t46 2q38 0 89 -4t96.5 -9.5t77 -10l31.5 -4.5l1 -1q3 -2 3 -5t-3 -4h-1q-2 -1 -4 -1h-4
q-6 -1 -23.5 -2t-42 -2.5t-54 -3t-59.5 -2.5q-8 -17 -23.5 -43.5t-44.5 -71.5q-19 -30 -48.5 -70t-60 -81t-59 -77.5t-45.5 -59.5q21 -3 42.5 -7t39 -8t28 -7.5l10.5 -3.5l1 -1q2 -2 2 -4t-2 -4l-2 -1l-4 -1q-5 -1 -23 -2.5t-41 -3t-49 -3t-48.5 -3l-37.5 -2.5t-17 -1h-2v2
l-3 9q-2 5 -3 11.5t-1 15.5zM512 544q-4 -3 -20 -12.5t-37 -20.5t-43.5 -19.5t-39.5 -8.5q-11 0 -23.5 10t-12.5 21q0 2 2 2q4 0 10 -2.5t12 -2.5q38 0 79.5 12t75.5 31q3 0 3 -3q0 -4 -4 -7h-2z" />
    <glyph glyph-name="Icircumflex" unicode="&#xce;" horiz-adv-x="282" 
d="M17 -21q0 11 15.5 14.5t33.5 3.5q13 0 24.5 -1t18.5 -1q24 52 54 102t61.5 98.5t63 97.5t60.5 100q-32 -1 -56.5 -2t-35.5 -1q-4 0 -6 1l-2 1q-3 5 -5 12q-5 12 -5 31q0 6 17 8t46 2q38 0 89 -4t96.5 -9.5t77 -10l31.5 -4.5l1 -1q3 -2 3 -5t-3 -4h-1q-2 -1 -4 -1h-4
q-6 -1 -23.5 -2t-42 -2.5t-54 -3t-59.5 -2.5q-8 -17 -23.5 -43.5t-44.5 -71.5q-19 -30 -48.5 -70t-60 -81t-59 -77.5t-45.5 -59.5q21 -3 42.5 -7t39 -8t28 -7.5l10.5 -3.5l1 -1q2 -2 2 -4t-2 -4l-2 -1l-4 -1q-5 -1 -23 -2.5t-41 -3t-49 -3t-48.5 -3l-37.5 -2.5t-17 -1h-2v2
l-3 9q-2 5 -3 11.5t-1 15.5zM413 560q-3 -3 -15 -16t-27.5 -26.5t-31.5 -23.5t-27 -7q-4 0 -8.5 7t-7.5 15t-3.5 13.5t2.5 3.5q5 -5 12.5 -5.5t11.5 3.5h2q12 0 26 6t27.5 14t24 16t14.5 11q0 3 2 1q0 1 1 0.5t1 -1.5q4 -3 14.5 -11t24 -16t27.5 -14t26 -6h2q4 -4 11.5 -3.5
t12.5 5.5q3 2 2.5 -3.5t-3.5 -13.5t-7.5 -15t-8.5 -7q-11 -3 -27 7t-31.5 23.5t-27.5 26.5t-15 16h-2h-2z" />
    <glyph glyph-name="Idieresis" unicode="&#xcf;" horiz-adv-x="282" 
d="M17 -21q0 11 15.5 14.5t33.5 3.5q13 0 24.5 -1t18.5 -1q24 52 54 102t61.5 98.5t63 97.5t60.5 100q-32 -1 -56.5 -2t-35.5 -1q-4 0 -6 1l-2 1q-3 5 -5 12q-5 12 -5 31q0 6 17 8t46 2q38 0 89 -4t96.5 -9.5t77 -10l31.5 -4.5l1 -1q3 -2 3 -5t-3 -4h-1q-2 -1 -4 -1h-4
q-6 -1 -23.5 -2t-42 -2.5t-54 -3t-59.5 -2.5q-8 -17 -23.5 -43.5t-44.5 -71.5q-19 -30 -48.5 -70t-60 -81t-59 -77.5t-45.5 -59.5q21 -3 42.5 -7t39 -8t28 -7.5l10.5 -3.5l1 -1q2 -2 2 -4t-2 -4l-2 -1l-4 -1q-5 -1 -23 -2.5t-41 -3t-49 -3t-48.5 -3l-37.5 -2.5t-17 -1h-2v2
l-3 9q-2 5 -3 11.5t-1 15.5zM378 481q-4 0 -3.5 10t3 22t6 22.5t6.5 12.5q13 -5 27 -17q1 -2 -2.5 -10t-9 -17t-13 -16t-14.5 -7zM417 481q-4 0 -4 10t2.5 22t6.5 22.5t7 12.5q14 -5 26 -17q1 -2 -2.5 -10t-9 -17t-12.5 -16t-14 -7z" />
    <glyph glyph-name="Eth" unicode="&#xd0;" horiz-adv-x="463" 
d="M57 227q-2 0 -8 3t-13 9.5t-12 16t-5 23.5t7 27.5t18 25t25 22t29 18.5q18 10 43 23.5t57 25.5t72 20t89 8q22 0 52 -5.5t57 -20.5t46 -41.5t19 -68.5q0 -33 -13 -62q-26 -62 -70 -120.5t-95.5 -104.5t-105.5 -73.5t-100 -27.5q-32 0 -54 13.5t-36.5 30t-21.5 30.5l-8 16
l-2.5 5t-1.5 6q0 4 4 5q5 -2 9.5 -10t12.5 -19q4 -6 12 -15t20 -18t29 -15.5t38 -6.5q34 0 83 29t97.5 77t90.5 109t62 125q4 13 4 28q0 18 -9 33t-24 25.5t-34 16.5t-39 7q-71 -3 -129 -18t-98.5 -35.5t-62.5 -43.5t-22 -43q0 -8 -1.5 -19t-10.5 -11zM219 360
q1 0 11.5 -1.5t24.5 -11.5q6 -5 6 -9q0 -7 -11.5 -25.5t-42.5 -65.5q-27 -41 -60 -75h47.5t23.5 1h1l3 -3q1 -1 1.5 -2t1.5 -2q0 -1 2 -3q0 -1 0.5 -1.5t0.5 -1.5q2 -2 0 -4q0 -1 -1 -1l-1 -1q-1 0 -1.5 -0.5t-2.5 -0.5l-2 -1q-3 0 -5 -1h-3q-2 0 -3 -0.5t-3 -0.5h-8
q-5 -1 -10.5 -1h-13.5h-3q-5 0 -10.5 0.5t-11.5 0.5h-23l-42 -44t-40 -46l-1 -1q-3 0 -5.5 0.5t-2.5 5.5l2 4q1 2 2 3q4 7 17 29t31 52q-14 1 -27.5 2t-26.5 2q-8 1 -15 1.5t-14 0.5q-2 0 -3.5 0.5t-3.5 0.5h-24q-4 0 -4 1q-1 1 0 1.5t1 1.5q1 0 2 1q2 0 3 1q7 1 23 3
q7 0 12 1q18 1 41.5 1.5t47.5 0.5q18 30 38 62t37 58.5t28.5 45t14.5 21.5z" />
    <glyph glyph-name="Ntilde" unicode="&#xd1;" horiz-adv-x="364" 
d="M20 -19q-4 0 -4 5v1q0 13 13 51t32.5 87.5t42.5 104t43.5 102t34.5 81t17 40.5q0 2 6.5 3t15.5 1q10 0 18.5 -2.5t8.5 -8.5t-0.5 -6.5t-3 -12t-6.5 -41t-11 -93.5q-3 -24 -8 -55.5t-10 -65.5t-8.5 -68.5t-3.5 -64.5q0 -42 5 -67q5 16 24.5 52.5t45 83t54 97.5t52.5 96
t39.5 79.5t15.5 47.5q0 3 -1 5t-1 3v-1q2 2 6 5q4 2 11 4t19 2q5 0 10 -2.5t5 -8.5q0 -9 -2 -20.5t-8 -30t-18 -45t-31 -64.5q-13 -26 -34.5 -59t-45.5 -67t-48 -67t-43.5 -60t-31.5 -45t-12 -23q0 -8 -5 -8q-3 0 -9 8t-12.5 30t-11.5 60.5t-5 98.5q0 29 1.5 59.5t5.5 58.5
q-20 -39 -45.5 -85t-47.5 -86.5t-37.5 -69.5t-15.5 -34l-1 -2q-3 -3 -5 -3zM365 550q13 -4 25 -12.5t22.5 -16.5t19.5 -14t17 -6q13 0 23 9.5t13 9.5q5 0 5 -5q-4 -10 -9 -17q-5 -6 -13 -11t-22 -5q-17 0 -31 5.5t-27 12t-25 12t-25 5.5q-23 0 -33.5 -8t-20.5 -8l-5 1.5
t-10 4.5t-9.5 7.5t-4.5 10.5q0 7 10 13t23.5 10t27.5 6.5t23 2.5q2 0 3.5 -0.5t3.5 -0.5z" />
    <glyph glyph-name="Ograve" unicode="&#xd2;" horiz-adv-x="406" 
d="M-18 119q5 43 20 86t39.5 83t58 74t75.5 59q16 9 35 18t40 16t41.5 10.5t39.5 1.5q40 -5 64 -29t36 -56.5t14 -68t-1 -63.5q-7 -58 -36.5 -114.5t-75 -99.5t-103 -66.5t-121.5 -15.5q-38 6 -53.5 18t-11.5 38q1 5 6 13.5t13 7.5q4 -1 8 -4t10 -7t14.5 -7.5t22.5 -4.5
q11 -2 26.5 -0.5t35.5 6.5q21 6 54 20.5t65.5 44.5t59.5 77t36 118q2 19 1 43.5t-8.5 46.5t-22 38t-38.5 19q-21 3 -45.5 -3t-47.5 -14q-56 -20 -97.5 -57t-70.5 -81t-46 -90t-22 -83q-3 -25 0 -45t8.5 -34.5t11 -23t8.5 -9.5q8 -8 11 -8.5t4 -4.5q-1 -3 -5 -3
q-12 1 -24 10.5t-20 28.5t-11 47.5t2 67.5zM270 555q-8 5 -6 8.5t4 1.5q12 -5 36.5 -14.5t51.5 -17t51 -11t35 4.5q4 2 3 -3t-5 -11.5t-10.5 -12t-12.5 -5.5q-16 -3 -39 5t-45.5 19.5t-40.5 22t-22 13.5z" />
    <glyph glyph-name="Oacute" unicode="&#xd3;" horiz-adv-x="406" 
d="M-18 119q5 43 20 86t39.5 83t58 74t75.5 59q16 9 35 18t40 16t41.5 10.5t39.5 1.5q40 -5 64 -29t36 -56.5t14 -68t-1 -63.5q-7 -58 -36.5 -114.5t-75 -99.5t-103 -66.5t-121.5 -15.5q-38 6 -53.5 18t-11.5 38q1 5 6 13.5t13 7.5q4 -1 8 -4t10 -7t14.5 -7.5t22.5 -4.5
q11 -2 26.5 -0.5t35.5 6.5q21 6 54 20.5t65.5 44.5t59.5 77t36 118q2 19 1 43.5t-8.5 46.5t-22 38t-38.5 19q-21 3 -45.5 -3t-47.5 -14q-56 -20 -97.5 -57t-70.5 -81t-46 -90t-22 -83q-3 -25 0 -45t8.5 -34.5t11 -23t8.5 -9.5q8 -8 11 -8.5t4 -4.5q-1 -3 -5 -3
q-12 1 -24 10.5t-20 28.5t-11 47.5t2 67.5zM438 571q-4 -3 -20 -12.5t-37 -20.5t-43.5 -19.5t-39.5 -8.5q-11 0 -23.5 10t-12.5 21q0 2 2 2q4 0 10 -2.5t12 -2.5q38 0 79.5 12t75.5 31q3 0 3 -3q0 -4 -4 -7h-2z" />
    <glyph glyph-name="Ocircumflex" unicode="&#xd4;" horiz-adv-x="406" 
d="M-18 119q5 43 20 86t39.5 83t58 74t75.5 59q16 9 35 18t40 16t41.5 10.5t39.5 1.5q40 -5 64 -29t36 -56.5t14 -68t-1 -63.5q-7 -58 -36.5 -114.5t-75 -99.5t-103 -66.5t-121.5 -15.5q-38 6 -53.5 18t-11.5 38q1 5 6 13.5t13 7.5q4 -1 8 -4t10 -7t14.5 -7.5t22.5 -4.5
q11 -2 26.5 -0.5t35.5 6.5q21 6 54 20.5t65.5 44.5t59.5 77t36 118q2 19 1 43.5t-8.5 46.5t-22 38t-38.5 19q-21 3 -45.5 -3t-47.5 -14q-56 -20 -97.5 -57t-70.5 -81t-46 -90t-22 -83q-3 -25 0 -45t8.5 -34.5t11 -23t8.5 -9.5q8 -8 11 -8.5t4 -4.5q-1 -3 -5 -3
q-12 1 -24 10.5t-20 28.5t-11 47.5t2 67.5zM336 570q-3 -3 -15 -16t-27.5 -26.5t-31.5 -23.5t-27 -7q-4 0 -8.5 7t-7.5 15t-3.5 13.5t2.5 3.5q5 -5 12.5 -5.5t11.5 3.5h2q12 0 26 6t27.5 14t24 16t14.5 11q0 3 2 1q0 1 1 0.5t1 -1.5q4 -3 14.5 -11t24 -16t27.5 -14t26 -6h2
q4 -4 11.5 -3.5t12.5 5.5q3 2 2.5 -3.5t-3.5 -13.5t-7.5 -15t-8.5 -7q-11 -3 -27 7t-31.5 23.5t-27.5 26.5t-15 16h-2h-2z" />
    <glyph glyph-name="Otilde" unicode="&#xd5;" horiz-adv-x="406" 
d="M-18 119q5 43 20 86t39.5 83t58 74t75.5 59q16 9 35 18t40 16t41.5 10.5t39.5 1.5q40 -5 64 -29t36 -56.5t14 -68t-1 -63.5q-7 -58 -36.5 -114.5t-75 -99.5t-103 -66.5t-121.5 -15.5q-38 6 -53.5 18t-11.5 38q1 5 6 13.5t13 7.5q4 -1 8 -4t10 -7t14.5 -7.5t22.5 -4.5
q11 -2 26.5 -0.5t35.5 6.5q21 6 54 20.5t65.5 44.5t59.5 77t36 118q2 19 1 43.5t-8.5 46.5t-22 38t-38.5 19q-21 3 -45.5 -3t-47.5 -14q-56 -20 -97.5 -57t-70.5 -81t-46 -90t-22 -83q-3 -25 0 -45t8.5 -34.5t11 -23t8.5 -9.5q8 -8 11 -8.5t4 -4.5q-1 -3 -5 -3
q-12 1 -24 10.5t-20 28.5t-11 47.5t2 67.5zM344 565q13 -4 25 -12.5t22.5 -16.5t19.5 -14t17 -6q13 0 23 9.5t13 9.5q5 0 5 -5q-4 -10 -9 -17q-5 -6 -13 -11t-22 -5q-17 0 -31 5.5t-27 12t-25 12t-25 5.5q-23 0 -33.5 -8t-20.5 -8l-5 1.5t-10 4.5t-9.5 7.5t-4.5 10.5
q0 7 10 13t23.5 10t27.5 6.5t23 2.5q2 0 3.5 -0.5t3.5 -0.5z" />
    <glyph glyph-name="Odieresis" unicode="&#xd6;" horiz-adv-x="406" 
d="M-18 119q5 43 20 86t39.5 83t58 74t75.5 59q16 9 35 18t40 16t41.5 10.5t39.5 1.5q40 -5 64 -29t36 -56.5t14 -68t-1 -63.5q-7 -58 -36.5 -114.5t-75 -99.5t-103 -66.5t-121.5 -15.5q-38 6 -53.5 18t-11.5 38q1 5 6 13.5t13 7.5q4 -1 8 -4t10 -7t14.5 -7.5t22.5 -4.5
q11 -2 26.5 -0.5t35.5 6.5q21 6 54 20.5t65.5 44.5t59.5 77t36 118q2 19 1 43.5t-8.5 46.5t-22 38t-38.5 19q-21 3 -45.5 -3t-47.5 -14q-56 -20 -97.5 -57t-70.5 -81t-46 -90t-22 -83q-3 -25 0 -45t8.5 -34.5t11 -23t8.5 -9.5q8 -8 11 -8.5t4 -4.5q-1 -3 -5 -3
q-12 1 -24 10.5t-20 28.5t-11 47.5t2 67.5zM325 506q-4 0 -3.5 10t3 22t6 22.5t6.5 12.5q13 -5 27 -17q1 -2 -2.5 -10t-9 -17t-13 -16t-14.5 -7zM364 506q-4 0 -4 10t2.5 22t6.5 22.5t7 12.5q14 -5 26 -17q1 -2 -2.5 -10t-9 -17t-12.5 -16t-14 -7z" />
    <glyph glyph-name="multiply" unicode="&#xd7;" horiz-adv-x="294" 
d="M235 66q-4 -8 -15.5 0.5t-24.5 23.5t-25 33t-16 30q-57 -38 -88.5 -58.5t-35.5 -20.5q-3 0 -6.5 1.5t-1.5 3.5q9 14 32.5 44.5t83.5 80.5q-1 4 -4 11.5t-5.5 15.5t-3 15t3.5 12q5 4 11 8q5 3 11 6t14 3t10.5 -9.5t7.5 -25.5q25 19 39.5 29.5t16.5 10.5q9 -5 17 -10
q6 -5 11.5 -11t5.5 -11q0 -4 -3.5 -8t-12.5 -11t-23.5 -18t-35.5 -27q3 -9 9 -24t13 -31t13 -30t8 -21z" />
    <glyph glyph-name="Oslash" unicode="&#xd8;" horiz-adv-x="406" 
d="M376 484q-1 -4 -2 -8.5t-3 -11.5q19 -14 32 -35t20.5 -44.5t11 -47.5t3.5 -44q0 -56 -21.5 -112.5t-59 -102t-89.5 -74.5t-113 -29t-67 32q-4 -5 -7 -9t-6 -9q7 -5 10 -5.5t4 -4.5q0 -3 -4 -3q-6 0 -16 4q-12 -19 -19.5 -31t-8.5 -16q-4 -9 -7 -9q-2 0 -3 2.5t-1 3.5
q0 18 20 63q-14 14 -24 44t-10 79q0 41 9.5 83.5t28 83t46.5 76.5t64 64q14 10 31 21t36 20t38 15t37 6q7 0 17 -2q1 2 1.5 3.5t1.5 2.5q2 5 10.5 6t13.5 1t15.5 -1t10.5 -11zM388 309q0 26 -8 59t-28 53q-10 -20 -25.5 -47.5t-38.5 -66.5q-16 -26 -37.5 -59.5t-46 -69.5
l-49 -72t-46.5 -67q7 -3 17.5 -8t30.5 -5q11 0 25.5 2.5t33.5 10.5q19 7 48.5 25t57 50t47 79.5t19.5 115.5zM35 93q0 -31 7 -52t15 -34q21 45 54 105t68 121t67.5 116.5t53.5 91.5q-20 -2 -40 -9.5t-39 -17.5q-50 -25 -85.5 -65t-58 -85t-32.5 -90t-10 -81z" />
    <glyph glyph-name="Ugrave" unicode="&#xd9;" horiz-adv-x="390" 
d="M109 -15q-13 2 -29 5.5t-30.5 12.5t-24.5 25.5t-10 45.5q0 28 8.5 58t21 58.5t26.5 54t25 45.5q19 33 33.5 60.5t27.5 47t25.5 30.5t26.5 11q15 0 30 -11q-2 -14 -13.5 -30t-31 -45.5t-47 -78t-63.5 -128.5q-21 -36 -21 -63q0 -55 86 -55q33 0 69 24t71 60t67 79.5
t58 81.5t43.5 66t23.5 34l2 3q3 3 6 3q4 0 4 -4l-4 -8.5t-15 -30.5t-32.5 -60t-57.5 -98q-18 -30 -41.5 -64t-53 -63.5t-66 -49t-80.5 -19.5q-16 0 -34 3zM306 542q-8 5 -6 8.5t4 1.5q12 -5 36.5 -14.5t51.5 -17t51 -11t35 4.5q4 2 3 -3t-5 -11.5t-10.5 -12t-12.5 -5.5
q-16 -3 -39 5t-45.5 19.5t-40.5 22t-22 13.5z" />
    <glyph glyph-name="Uacute" unicode="&#xda;" horiz-adv-x="390" 
d="M109 -15q-13 2 -29 5.5t-30.5 12.5t-24.5 25.5t-10 45.5q0 28 8.5 58t21 58.5t26.5 54t25 45.5q19 33 33.5 60.5t27.5 47t25.5 30.5t26.5 11q15 0 30 -11q-2 -14 -13.5 -30t-31 -45.5t-47 -78t-63.5 -128.5q-21 -36 -21 -63q0 -55 86 -55q33 0 69 24t71 60t67 79.5
t58 81.5t43.5 66t23.5 34l2 3q3 3 6 3q4 0 4 -4l-4 -8.5t-15 -30.5t-32.5 -60t-57.5 -98q-18 -30 -41.5 -64t-53 -63.5t-66 -49t-80.5 -19.5q-16 0 -34 3zM493 539q-4 -3 -20 -12.5t-37 -20.5t-43.5 -19.5t-39.5 -8.5q-11 0 -23.5 10t-12.5 21q0 2 2 2q4 0 10 -2.5t12 -2.5
q38 0 79.5 12t75.5 31q3 0 3 -3q0 -4 -4 -7h-2z" />
    <glyph glyph-name="Ucircumflex" unicode="&#xdb;" horiz-adv-x="390" 
d="M109 -15q-13 2 -29 5.5t-30.5 12.5t-24.5 25.5t-10 45.5q0 28 8.5 58t21 58.5t26.5 54t25 45.5q19 33 33.5 60.5t27.5 47t25.5 30.5t26.5 11q15 0 30 -11q-2 -14 -13.5 -30t-31 -45.5t-47 -78t-63.5 -128.5q-21 -36 -21 -63q0 -55 86 -55q33 0 69 24t71 60t67 79.5
t58 81.5t43.5 66t23.5 34l2 3q3 3 6 3q4 0 4 -4l-4 -8.5t-15 -30.5t-32.5 -60t-57.5 -98q-18 -30 -41.5 -64t-53 -63.5t-66 -49t-80.5 -19.5q-16 0 -34 3zM381 562q-3 -3 -15 -16t-27.5 -26.5t-31.5 -23.5t-27 -7q-4 0 -8.5 7t-7.5 15t-3.5 13.5t2.5 3.5q5 -5 12.5 -5.5
t11.5 3.5h2q12 0 26 6t27.5 14t24 16t14.5 11q0 3 2 1q0 1 1 0.5t1 -1.5q4 -3 14.5 -11t24 -16t27.5 -14t26 -6h2q4 -4 11.5 -3.5t12.5 5.5q3 2 2.5 -3.5t-3.5 -13.5t-7.5 -15t-8.5 -7q-11 -3 -27 7t-31.5 23.5t-27.5 26.5t-15 16h-2h-2z" />
    <glyph glyph-name="Udieresis" unicode="&#xdc;" horiz-adv-x="390" 
d="M109 -15q-13 2 -29 5.5t-30.5 12.5t-24.5 25.5t-10 45.5q0 28 8.5 58t21 58.5t26.5 54t25 45.5q19 33 33.5 60.5t27.5 47t25.5 30.5t26.5 11q15 0 30 -11q-2 -14 -13.5 -30t-31 -45.5t-47 -78t-63.5 -128.5q-21 -36 -21 -63q0 -55 86 -55q33 0 69 24t71 60t67 79.5
t58 81.5t43.5 66t23.5 34l2 3q3 3 6 3q4 0 4 -4l-4 -8.5t-15 -30.5t-32.5 -60t-57.5 -98q-18 -30 -41.5 -64t-53 -63.5t-66 -49t-80.5 -19.5q-16 0 -34 3zM346 479q-4 0 -3.5 10t3 22t6 22.5t6.5 12.5q13 -5 27 -17q1 -2 -2.5 -10t-9 -17t-13 -16t-14.5 -7zM385 479
q-4 0 -4 10t2.5 22t6.5 22.5t7 12.5q14 -5 26 -17q1 -2 -2.5 -10t-9 -17t-12.5 -16t-14 -7z" />
    <glyph glyph-name="Yacute" unicode="&#xdd;" horiz-adv-x="428" 
d="M488 314q11 -2 8.5 -19t-21.5 -55t-54 -100.5t-89 -156.5q39 17 65.5 25t34.5 8q3 0 7.5 -0.5t5.5 -5.5q0 -3 -6 -5q-1 0 -10 -2t-11 -3v-1q-12 -3 -41 -15.5t-68 -36.5q-20 -30 -42.5 -63t-49.5 -68q-8 -10 -17.5 -23.5t-21.5 -26t-25 -21t-26 -8.5q-18 0 -24 11.5
t-6 16.5q1 29 15 53.5t35 45.5t46 38t48 32q11 17 21.5 34.5t21.5 34.5q-36 -27 -76 -35.5t-77 -8.5q-12 0 -32 1t-39 6.5t-33 18t-14 35.5q0 32 17 65.5t32 64.5q43 93 69 150t43.5 89t29.5 43t27 11q5 0 14 -3.5t9 -10.5q0 -8 -7 -22.5t-23 -45t-42.5 -82.5t-65.5 -134
q-6 -13 -15.5 -32l-18.5 -37t-15 -33t-6 -21t8.5 -9.5t22 -6t30 -3.5t31.5 -1q33 0 59.5 7.5t49.5 22t45 37t46 52.5q34 58 53.5 96.5t32.5 61t23.5 30.5t25.5 5zM137 -211q14 15 28 33.5t27 36.5q-17 -16 -31 -33t-24 -37zM517 543q-4 -3 -20 -12.5t-37 -20.5t-43.5 -19.5
t-39.5 -8.5q-11 0 -23.5 10t-12.5 21q0 2 2 2q4 0 10 -2.5t12 -2.5q38 0 79.5 12t75.5 31q3 0 3 -3q0 -4 -4 -7h-2z" />
    <glyph glyph-name="agrave" unicode="&#xe0;" horiz-adv-x="293" 
d="M182 221q4 0 8 -4.5t7 -10.5t5 -12.5t2 -10.5q0 -8 -6.5 -10t-21.5 -6.5t-40 -16.5t-62 -39q-8 -6 -16.5 -13.5t-16.5 -16t-13 -17.5t-5 -16q0 -8 8 -10.5t20 -2.5q24 0 48.5 12.5t41.5 25.5q5 21 14.5 38.5t17.5 30.5q10 15 21 28h-1l6.5 -2t14 -5t14 -7.5t6.5 -10.5
q-1 0 -9.5 -14t-18 -32t-17 -35.5t-7.5 -24.5q0 -2 1 -3q20 0 40 8t37 17.5t28 17.5t13 8t5.5 -0.5t3.5 -3.5q0 -10 -14 -25t-34.5 -29t-43 -24.5t-38.5 -12.5q-22 -2 -31 12t-12 33q-17 -14 -42 -28t-54 -14q-26 0 -44.5 16t-18.5 42q0 27 15 50t38 41.5t49 32.5t49 23.5
t38 14.5t15 6zM92 304q-8 5 -6 8.5t4 1.5q12 -5 36.5 -14.5t51.5 -17t51 -11t35 4.5q4 2 3 -3t-5 -11.5t-10.5 -12t-12.5 -5.5q-16 -3 -39 5t-45.5 19.5t-40.5 22t-22 13.5z" />
    <glyph glyph-name="aacute" unicode="&#xe1;" horiz-adv-x="293" 
d="M182 221q4 0 8 -4.5t7 -10.5t5 -12.5t2 -10.5q0 -8 -6.5 -10t-21.5 -6.5t-40 -16.5t-62 -39q-8 -6 -16.5 -13.5t-16.5 -16t-13 -17.5t-5 -16q0 -8 8 -10.5t20 -2.5q24 0 48.5 12.5t41.5 25.5q5 21 14.5 38.5t17.5 30.5q10 15 21 28h-1l6.5 -2t14 -5t14 -7.5t6.5 -10.5
q-1 0 -9.5 -14t-18 -32t-17 -35.5t-7.5 -24.5q0 -2 1 -3q20 0 40 8t37 17.5t28 17.5t13 8t5.5 -0.5t3.5 -3.5q0 -10 -14 -25t-34.5 -29t-43 -24.5t-38.5 -12.5q-22 -2 -31 12t-12 33q-17 -14 -42 -28t-54 -14q-26 0 -44.5 16t-18.5 42q0 27 15 50t38 41.5t49 32.5t49 23.5
t38 14.5t15 6zM265 304q-4 -3 -20 -12.5t-37 -20.5t-43.5 -19.5t-39.5 -8.5q-11 0 -23.5 10t-12.5 21q0 2 2 2q4 0 10 -2.5t12 -2.5q38 0 79.5 12t75.5 31q3 0 3 -3q0 -4 -4 -7h-2z" />
    <glyph glyph-name="acircumflex" unicode="&#xe2;" horiz-adv-x="293" 
d="M182 221q4 0 8 -4.5t7 -10.5t5 -12.5t2 -10.5q0 -8 -6.5 -10t-21.5 -6.5t-40 -16.5t-62 -39q-8 -6 -16.5 -13.5t-16.5 -16t-13 -17.5t-5 -16q0 -8 8 -10.5t20 -2.5q24 0 48.5 12.5t41.5 25.5q5 21 14.5 38.5t17.5 30.5q10 15 21 28h-1l6.5 -2t14 -5t14 -7.5t6.5 -10.5
q-1 0 -9.5 -14t-18 -32t-17 -35.5t-7.5 -24.5q0 -2 1 -3q20 0 40 8t37 17.5t28 17.5t13 8t5.5 -0.5t3.5 -3.5q0 -10 -14 -25t-34.5 -29t-43 -24.5t-38.5 -12.5q-22 -2 -31 12t-12 33q-17 -14 -42 -28t-54 -14q-26 0 -44.5 16t-18.5 42q0 27 15 50t38 41.5t49 32.5t49 23.5
t38 14.5t15 6zM177 302q-3 -3 -15 -16t-27.5 -26.5t-31.5 -23.5t-27 -7q-4 0 -8.5 7t-7.5 15t-3.5 13.5t2.5 3.5q5 -5 12.5 -5.5t11.5 3.5h2q12 0 26 6t27.5 14t24 16t14.5 11q0 3 2 1q0 1 1 0.5t1 -1.5q4 -3 14.5 -11t24 -16t27.5 -14t26 -6h2q4 -4 11.5 -3.5t12.5 5.5
q3 2 2.5 -3.5t-3.5 -13.5t-7.5 -15t-8.5 -7q-11 -3 -27 7t-31.5 23.5t-27.5 26.5t-15 16h-2h-2z" />
    <glyph glyph-name="atilde" unicode="&#xe3;" horiz-adv-x="293" 
d="M182 221q4 0 8 -4.5t7 -10.5t5 -12.5t2 -10.5q0 -8 -6.5 -10t-21.5 -6.5t-40 -16.5t-62 -39q-8 -6 -16.5 -13.5t-16.5 -16t-13 -17.5t-5 -16q0 -8 8 -10.5t20 -2.5q24 0 48.5 12.5t41.5 25.5q5 21 14.5 38.5t17.5 30.5q10 15 21 28h-1l6.5 -2t14 -5t14 -7.5t6.5 -10.5
q-1 0 -9.5 -14t-18 -32t-17 -35.5t-7.5 -24.5q0 -2 1 -3q20 0 40 8t37 17.5t28 17.5t13 8t5.5 -0.5t3.5 -3.5q0 -10 -14 -25t-34.5 -29t-43 -24.5t-38.5 -12.5q-22 -2 -31 12t-12 33q-17 -14 -42 -28t-54 -14q-26 0 -44.5 16t-18.5 42q0 27 15 50t38 41.5t49 32.5t49 23.5
t38 14.5t15 6zM172 303q13 -4 25 -12.5t22.5 -16.5t19.5 -14t17 -6q13 0 23 9.5t13 9.5q5 0 5 -5q-4 -10 -9 -17q-5 -6 -13 -11t-22 -5q-17 0 -31 5.5t-27 12t-25 12t-25 5.5q-23 0 -33.5 -8t-20.5 -8l-5 1.5t-10 4.5t-9.5 7.5t-4.5 10.5q0 7 10 13t23.5 10t27.5 6.5t23 2.5
q2 0 3.5 -0.5t3.5 -0.5z" />
    <glyph glyph-name="adieresis" unicode="&#xe4;" horiz-adv-x="293" 
d="M182 221q4 0 8 -4.5t7 -10.5t5 -12.5t2 -10.5q0 -8 -6.5 -10t-21.5 -6.5t-40 -16.5t-62 -39q-8 -6 -16.5 -13.5t-16.5 -16t-13 -17.5t-5 -16q0 -8 8 -10.5t20 -2.5q24 0 48.5 12.5t41.5 25.5q5 21 14.5 38.5t17.5 30.5q10 15 21 28h-1l6.5 -2t14 -5t14 -7.5t6.5 -10.5
q-1 0 -9.5 -14t-18 -32t-17 -35.5t-7.5 -24.5q0 -2 1 -3q20 0 40 8t37 17.5t28 17.5t13 8t5.5 -0.5t3.5 -3.5q0 -10 -14 -25t-34.5 -29t-43 -24.5t-38.5 -12.5q-22 -2 -31 12t-12 33q-17 -14 -42 -28t-54 -14q-26 0 -44.5 16t-18.5 42q0 27 15 50t38 41.5t49 32.5t49 23.5
t38 14.5t15 6zM207 231q-4 0 -3.5 10t3 22t6 22.5t6.5 12.5q13 -5 27 -17q1 -2 -2.5 -10t-9 -17t-13 -16t-14.5 -7zM246 231q-4 0 -4 10t2.5 22t6.5 22.5t7 12.5q14 -5 26 -17q1 -2 -2.5 -10t-9 -17t-12.5 -16t-14 -7z" />
    <glyph glyph-name="aring" unicode="&#xe5;" horiz-adv-x="293" 
d="M182 221q4 0 8 -4.5t7 -10.5t5 -12.5t2 -10.5q0 -8 -6.5 -10t-21.5 -6.5t-40 -16.5t-62 -39q-8 -6 -16.5 -13.5t-16.5 -16t-13 -17.5t-5 -16q0 -8 8 -10.5t20 -2.5q24 0 48.5 12.5t41.5 25.5q5 21 14.5 38.5t17.5 30.5q10 15 21 28h-1l6.5 -2t14 -5t14 -7.5t6.5 -10.5
q-1 0 -9.5 -14t-18 -32t-17 -35.5t-7.5 -24.5q0 -2 1 -3q20 0 40 8t37 17.5t28 17.5t13 8t5.5 -0.5t3.5 -3.5q0 -10 -14 -25t-34.5 -29t-43 -24.5t-38.5 -12.5q-22 -2 -31 12t-12 33q-17 -14 -42 -28t-54 -14q-26 0 -44.5 16t-18.5 42q0 27 15 50t38 41.5t49 32.5t49 23.5
t38 14.5t15 6zM216 222q-5 -1 -2 11t8.5 27.5t12 29.5t9.5 17q6 -2 13 -6t12 -9q0 -2 -5 -12.5t-13.5 -22.5t-18 -22.5t-16.5 -12.5zM230 249q7 2 14.5 14t6.5 14q-2 2 -4.5 3t-4.5 2q-2 -1 -4.5 -6.5t-5 -11.5t-3.5 -10.5t1 -4.5z" />
    <glyph glyph-name="ae" unicode="&#xe6;" horiz-adv-x="413" 
d="M182 221q4 0 8 -4.5t7 -10.5t5 -12.5t2 -10.5q0 -8 -6.5 -10t-21.5 -6.5t-40 -16.5t-62 -39q-8 -6 -16.5 -13.5t-16.5 -16t-13 -17.5t-5 -16q0 -8 8 -10.5t20 -2.5q24 0 48.5 12.5t41.5 25.5q5 20 13.5 37.5t17 30t14.5 20t7 8.5q2 0 7.5 -1.5t12.5 -4.5q23 20 50.5 33.5
t56.5 15.5q24 1 37 -15.5t7 -42.5q-8 -28 -25.5 -45.5t-37 -27.5t-38.5 -13.5t-30 -3.5q-9 0 -20.5 1t-16.5 10l-3 -3l-2 -4q-1 -3 -1 -6.5v-6.5q0 -14 18.5 -21t40.5 -7q39 0 72 11t57 24t37.5 24t12.5 10q2 2 6.5 2.5t4.5 -4.5q0 -4 -4.5 -9t-8.5 -8q-5 -5 -20.5 -18.5
t-40.5 -27.5t-57.5 -25.5t-69.5 -11.5q-6 0 -21 -1t-31.5 2t-31 12t-18.5 29q-17 -14 -42 -27.5t-53 -13.5q-26 0 -44.5 16t-18.5 42q0 27 15 50t38 41.5t49 32.5t49 23.5t38 14.5t15 6zM310 159q-16 -4 -37.5 -15t-41.5 -28q5 0 14.5 1t20.5 5t23 12.5t21 24.5zM193 170h1
l-1 -1v1z" />
    <glyph glyph-name="ccedilla" unicode="&#xe7;" horiz-adv-x="239" 
d="M16 3q-17 5 -28 23t-9 36q1 21 12.5 45t32.5 46t52.5 38t73.5 21q12 1 21 -3t15 -11t8.5 -15.5t1.5 -15.5q-2 -18 -6.5 -20.5t-9.5 1.5t-9 9.5t-5 4.5q-19 3 -44.5 -4.5t-48 -23t-38 -36.5t-15.5 -43q0 -14 18.5 -21t40.5 -7q39 0 72 11t57 24t37.5 24t12.5 10q3 2 7 2
t4 -4t-4.5 -8t-8.5 -9q-5 -5 -20.5 -18.5t-40.5 -27.5t-57.5 -25.5t-69.5 -11.5q-6 0 -12.5 0.5t-12.5 1.5q-2 -6 6.5 -14t11.5 -12q11 -16 0 -33q-8 -11 -22 -14.5t-26 3.5q-11 6 -11.5 15.5t8.5 17.5q3 2 4 2t-2 -5q-6 -8 -4 -14.5t8.5 -9.5t14.5 -3t14 5q19 15 4 33
q-5 7 -13 15t-3 16q-5 2 -8.5 2.5t-8.5 2.5z" />
    <glyph glyph-name="egrave" unicode="&#xe8;" horiz-adv-x="247" 
d="M20 3q-17 5 -27 23t-10 36q0 19 15 44t39.5 48.5t55 40t61.5 17.5q24 1 37 -15.5t7 -42.5q-8 -28 -25.5 -45.5t-37 -27.5t-38.5 -13.5t-30 -3.5q-9 0 -20.5 1t-16.5 10q-5 -4 -5.5 -9.5t-0.5 -10.5q0 -14 18.5 -21t40.5 -7q39 0 72 11t57 24t37.5 24t12.5 10q2 2 6.5 2.5
t4.5 -4.5q0 -4 -4.5 -9t-8.5 -8q-5 -5 -20.5 -18.5t-40.5 -27.5t-57.5 -25.5t-69.5 -11.5q-25 0 -52 9zM144 159q-16 -4 -37.5 -15t-41.5 -28q5 0 14.5 1t20.5 5t23 12.5t21 24.5zM88 304q-8 5 -6 8.5t4 1.5q12 -5 36.5 -14.5t51.5 -17t51 -11t35 4.5q4 2 3 -3t-5 -11.5
t-10.5 -12t-12.5 -5.5q-16 -3 -39 5t-45.5 19.5t-40.5 22t-22 13.5z" />
    <glyph glyph-name="eacute" unicode="&#xe9;" horiz-adv-x="247" 
d="M20 3q-17 5 -27 23t-10 36q0 19 15 44t39.5 48.5t55 40t61.5 17.5q24 1 37 -15.5t7 -42.5q-8 -28 -25.5 -45.5t-37 -27.5t-38.5 -13.5t-30 -3.5q-9 0 -20.5 1t-16.5 10q-5 -4 -5.5 -9.5t-0.5 -10.5q0 -14 18.5 -21t40.5 -7q39 0 72 11t57 24t37.5 24t12.5 10q2 2 6.5 2.5
t4.5 -4.5q0 -4 -4.5 -9t-8.5 -8q-5 -5 -20.5 -18.5t-40.5 -27.5t-57.5 -25.5t-69.5 -11.5q-25 0 -52 9zM144 159q-16 -4 -37.5 -15t-41.5 -28q5 0 14.5 1t20.5 5t23 12.5t21 24.5zM265 304q-4 -3 -20 -12.5t-37 -20.5t-43.5 -19.5t-39.5 -8.5q-11 0 -23.5 10t-12.5 21
q0 2 2 2q4 0 10 -2.5t12 -2.5q38 0 79.5 12t75.5 31q3 0 3 -3q0 -4 -4 -7h-2z" />
    <glyph glyph-name="ecircumflex" unicode="&#xea;" horiz-adv-x="247" 
d="M20 3q-17 5 -27 23t-10 36q0 19 15 44t39.5 48.5t55 40t61.5 17.5q24 1 37 -15.5t7 -42.5q-8 -28 -25.5 -45.5t-37 -27.5t-38.5 -13.5t-30 -3.5q-9 0 -20.5 1t-16.5 10q-5 -4 -5.5 -9.5t-0.5 -10.5q0 -14 18.5 -21t40.5 -7q39 0 72 11t57 24t37.5 24t12.5 10q2 2 6.5 2.5
t4.5 -4.5q0 -4 -4.5 -9t-8.5 -8q-5 -5 -20.5 -18.5t-40.5 -27.5t-57.5 -25.5t-69.5 -11.5q-25 0 -52 9zM144 159q-16 -4 -37.5 -15t-41.5 -28q5 0 14.5 1t20.5 5t23 12.5t21 24.5zM169 302q-3 -3 -15 -16t-27.5 -26.5t-31.5 -23.5t-27 -7q-4 0 -8.5 7t-7.5 15t-3.5 13.5
t2.5 3.5q5 -5 12.5 -5.5t11.5 3.5h2q12 0 26 6t27.5 14t24 16t14.5 11q0 3 2 1q0 1 1 0.5t1 -1.5q4 -3 14.5 -11t24 -16t27.5 -14t26 -6h2q4 -4 11.5 -3.5t12.5 5.5q3 2 2.5 -3.5t-3.5 -13.5t-7.5 -15t-8.5 -7q-11 -3 -27 7t-31.5 23.5t-27.5 26.5t-15 16h-2h-2z" />
    <glyph glyph-name="edieresis" unicode="&#xeb;" horiz-adv-x="247" 
d="M20 3q-17 5 -27 23t-10 36q0 19 15 44t39.5 48.5t55 40t61.5 17.5q24 1 37 -15.5t7 -42.5q-8 -28 -25.5 -45.5t-37 -27.5t-38.5 -13.5t-30 -3.5q-9 0 -20.5 1t-16.5 10q-5 -4 -5.5 -9.5t-0.5 -10.5q0 -14 18.5 -21t40.5 -7q39 0 72 11t57 24t37.5 24t12.5 10q2 2 6.5 2.5
t4.5 -4.5q0 -4 -4.5 -9t-8.5 -8q-5 -5 -20.5 -18.5t-40.5 -27.5t-57.5 -25.5t-69.5 -11.5q-25 0 -52 9zM144 159q-16 -4 -37.5 -15t-41.5 -28q5 0 14.5 1t20.5 5t23 12.5t21 24.5zM146 231q-4 0 -3.5 10t3 22t6 22.5t6.5 12.5q13 -5 27 -17q1 -2 -2.5 -10t-9 -17t-13 -16
t-14.5 -7zM185 231q-4 0 -4 10t2.5 22t6.5 22.5t7 12.5q14 -5 26 -17q1 -2 -2.5 -10t-9 -17t-12.5 -16t-14 -7z" />
    <glyph glyph-name="igrave" unicode="&#xec;" horiz-adv-x="192" 
d="M219 80q10 6 7 10.5t-5 3.5q-1 0 -21 -8.5t-48.5 -19t-61.5 -19t-60 -8.5h-2h-1q-3 5 9.5 26.5t29 45t31 42t14.5 17.5q0 4 -5 9q-14 11 -24.5 13t-11.5 2q-8 0 -23 -19t-30 -44.5t-26.5 -51t-11.5 -39.5q0 -13 9.5 -28t26.5 -16q21 -3 53 8t63.5 27t56 30.5t30.5 18.5h1
zM46 304q-8 5 -6 8.5t4 1.5q12 -5 36.5 -14.5t51.5 -17t51 -11t35 4.5q4 2 3 -3t-5 -11.5t-10.5 -12t-12.5 -5.5q-16 -3 -39 5t-45.5 19.5t-40.5 22t-22 13.5z" />
    <glyph glyph-name="iacute" unicode="&#xed;" horiz-adv-x="192" 
d="M218 80q-6 -4 -30.5 -18.5t-56 -30.5t-63.5 -27t-53 -8q-17 1 -26.5 16t-9.5 28q0 14 11.5 39.5t26.5 51t30 44.5t23 19q1 0 11.5 -2t24.5 -13q5 -5 5 -9q0 1 -14.5 -17.5t-31 -42t-29 -45t-9.5 -26.5h1h2q27 0 60 8.5t61.5 19t48.5 19t21 8.5q2 1 5 -3.5t-7 -10.5h-1z
M225 304q-4 -3 -20 -12.5t-37 -20.5t-43.5 -19.5t-39.5 -8.5q-11 0 -23.5 10t-12.5 21q0 2 2 2q4 0 10 -2.5t12 -2.5q38 0 79.5 12t75.5 31q3 0 3 -3q0 -4 -4 -7h-2z" />
    <glyph glyph-name="icircumflex" unicode="&#xee;" horiz-adv-x="192" 
d="M218 80q-6 -4 -30.5 -18.5t-56 -30.5t-63.5 -27t-53 -8q-17 1 -26.5 16t-9.5 28q0 14 11.5 39.5t26.5 51t30 44.5t23 19q1 0 11.5 -2t24.5 -13q5 -5 5 -9q0 1 -14.5 -17.5t-31 -42t-29 -45t-9.5 -26.5h1h2q27 0 60 8.5t61.5 19t48.5 19t21 8.5q2 1 5 -3.5t-7 -10.5h-1z
M116 302q-3 -3 -15 -16t-27.5 -26.5t-31.5 -23.5t-27 -7q-4 0 -8.5 7t-7.5 15t-3.5 13.5t2.5 3.5q5 -5 12.5 -5.5t11.5 3.5h2q12 0 26 6t27.5 14t24 16t14.5 11q0 3 2 1q0 1 1 0.5t1 -1.5q4 -3 14.5 -11t24 -16t27.5 -14t26 -6h2q4 -4 11.5 -3.5t12.5 5.5q3 2 2.5 -3.5
t-3.5 -13.5t-7.5 -15t-8.5 -7q-11 -3 -27 7t-31.5 23.5t-27.5 26.5t-15 16h-2h-2z" />
    <glyph glyph-name="idieresis" unicode="&#xef;" horiz-adv-x="192" 
d="M218 80q-6 -4 -30.5 -18.5t-56 -30.5t-63.5 -27t-53 -8q-17 1 -26.5 16t-9.5 28q0 14 11.5 39.5t26.5 51t30 44.5t23 19q1 0 11.5 -2t24.5 -13q5 -5 5 -9q0 1 -14.5 -17.5t-31 -42t-29 -45t-9.5 -26.5h1h2q27 0 60 8.5t61.5 19t48.5 19t21 8.5q2 1 5 -3.5t-7 -10.5h-1z
M93 231q-4 0 -3.5 10t3 22t6 22.5t6.5 12.5q13 -5 27 -17q1 -2 -2.5 -10t-9 -17t-13 -16t-14.5 -7zM132 231q-4 0 -4 10t2.5 22t6.5 22.5t7 12.5q14 -5 26 -17q1 -2 -2.5 -10t-9 -17t-12.5 -16t-14 -7z" />
    <glyph glyph-name="ntilde" unicode="&#xf1;" horiz-adv-x="291" 
d="M195 17q10 0 25 8.5t30 19t28 20.5t20 13q2 2 6 1.5t4 -4.5q0 -3 -4 -7q-5 -5 -16 -14t-37 -29q-11 -8 -27 -21t-31 -14q-17 0 -24 9.5t-7 19.5q0 13 7.5 29.5t17 34t20 34t16.5 31.5q-21 -9 -43 -24.5t-44 -34t-43.5 -38t-40.5 -35.5q-5 -3 -15.5 -13.5t-30.5 -10.5
q-19 0 -29 15t-10 27q0 23 13.5 41.5t20.5 27.5q40 51 65.5 75t24.5 25q3 2 10.5 1.5t15 -2.5t13.5 -6t6 -10t-6.5 -13.5t-18 -19.5t-27 -29.5t-34.5 -43.5q16 13 38.5 31.5t48 36t51.5 30t49 12.5q11 0 19.5 -8t8.5 -20q0 -18 -10 -37t-23.5 -38t-26 -36t-17.5 -32
q6 -2 7 -2zM202 303q13 -4 25 -12.5t22.5 -16.5t19.5 -14t17 -6q13 0 23 9.5t13 9.5q5 0 5 -5q-4 -10 -9 -17q-5 -6 -13 -11t-22 -5q-17 0 -31 5.5t-27 12t-25 12t-25 5.5q-23 0 -33.5 -8t-20.5 -8l-5 1.5t-10 4.5t-9.5 7.5t-4.5 10.5q0 7 10 13t23.5 10t27.5 6.5t23 2.5
q2 0 3.5 -0.5t3.5 -0.5z" />
    <glyph glyph-name="ograve" unicode="&#xf2;" horiz-adv-x="244" 
d="M44 -15q-24 0 -44.5 15t-20.5 47q0 22 8.5 41.5t23.5 34t35 23.5t42 10h-1q1 26 16.5 44t44.5 18q25 0 44 -18.5t19 -46.5q0 -9 -2 -17.5t-5 -17.5q21 0 36.5 4t20.5 4q11 -2 -6 -16t-65 -22q-3 -5 -13.5 -21.5t-29 -34.5t-44.5 -32.5t-59 -14.5zM141 164q-4 -3 -4 -9
q0 -5 3.5 -12t12.5 -12q2 2 3 6.5t2 8.5q-2 0 -6.5 7t-10.5 12v-1zM89 142q-29 -5 -51.5 -29t-22.5 -56q0 -14 5.5 -22t16.5 -8q12 0 25.5 7t27 17.5t25 22.5t19.5 23q-14 5 -26.5 14.5t-18.5 30.5zM75 304q-8 5 -6 8.5t4 1.5q12 -5 36.5 -14.5t51.5 -17t51 -11t35 4.5
q4 2 3 -3t-5 -11.5t-10.5 -12t-12.5 -5.5q-16 -3 -39 5t-45.5 19.5t-40.5 22t-22 13.5z" />
    <glyph glyph-name="oacute" unicode="&#xf3;" horiz-adv-x="244" 
d="M44 -15q-24 0 -44.5 15t-20.5 47q0 22 8.5 41.5t23.5 34t35 23.5t42 10h-1q1 26 16.5 44t44.5 18q25 0 44 -18.5t19 -46.5q0 -9 -2 -17.5t-5 -17.5q21 0 36.5 4t20.5 4q11 -2 -6 -16t-65 -22q-3 -5 -13.5 -21.5t-29 -34.5t-44.5 -32.5t-59 -14.5zM141 164q-4 -3 -4 -9
q0 -5 3.5 -12t12.5 -12q2 2 3 6.5t2 8.5q-2 0 -6.5 7t-10.5 12v-1zM89 142q-29 -5 -51.5 -29t-22.5 -56q0 -14 5.5 -22t16.5 -8q12 0 25.5 7t27 17.5t25 22.5t19.5 23q-14 5 -26.5 14.5t-18.5 30.5zM248 304q-4 -3 -20 -12.5t-37 -20.5t-43.5 -19.5t-39.5 -8.5
q-11 0 -23.5 10t-12.5 21q0 2 2 2q4 0 10 -2.5t12 -2.5q38 0 79.5 12t75.5 31q3 0 3 -3q0 -4 -4 -7h-2z" />
    <glyph glyph-name="ocircumflex" unicode="&#xf4;" horiz-adv-x="244" 
d="M44 -15q-24 0 -44.5 15t-20.5 47q0 22 8.5 41.5t23.5 34t35 23.5t42 10h-1q1 26 16.5 44t44.5 18q25 0 44 -18.5t19 -46.5q0 -9 -2 -17.5t-5 -17.5q21 0 36.5 4t20.5 4q11 -2 -6 -16t-65 -22q-3 -5 -13.5 -21.5t-29 -34.5t-44.5 -32.5t-59 -14.5zM141 164q-4 -3 -4 -9
q0 -5 3.5 -12t12.5 -12q2 2 3 6.5t2 8.5q-2 0 -6.5 7t-10.5 12v-1zM89 142q-29 -5 -51.5 -29t-22.5 -56q0 -14 5.5 -22t16.5 -8q12 0 25.5 7t27 17.5t25 22.5t19.5 23q-14 5 -26.5 14.5t-18.5 30.5zM158 302q-3 -3 -15 -16t-27.5 -26.5t-31.5 -23.5t-27 -7q-4 0 -8.5 7
t-7.5 15t-3.5 13.5t2.5 3.5q5 -5 12.5 -5.5t11.5 3.5h2q12 0 26 6t27.5 14t24 16t14.5 11q0 3 2 1q0 1 1 0.5t1 -1.5q4 -3 14.5 -11t24 -16t27.5 -14t26 -6h2q4 -4 11.5 -3.5t12.5 5.5q3 2 2.5 -3.5t-3.5 -13.5t-7.5 -15t-8.5 -7q-11 -3 -27 7t-31.5 23.5t-27.5 26.5t-15 16
h-2h-2z" />
    <glyph glyph-name="otilde" unicode="&#xf5;" horiz-adv-x="244" 
d="M44 -15q-24 0 -44.5 15t-20.5 47q0 22 8.5 41.5t23.5 34t35 23.5t42 10h-1q1 26 16.5 44t44.5 18q25 0 44 -18.5t19 -46.5q0 -9 -2 -17.5t-5 -17.5q21 0 36.5 4t20.5 4q11 -2 -6 -16t-65 -22q-3 -5 -13.5 -21.5t-29 -34.5t-44.5 -32.5t-59 -14.5zM141 164q-4 -3 -4 -9
q0 -5 3.5 -12t12.5 -12q2 2 3 6.5t2 8.5q-2 0 -6.5 7t-10.5 12v-1zM89 142q-29 -5 -51.5 -29t-22.5 -56q0 -14 5.5 -22t16.5 -8q12 0 25.5 7t27 17.5t25 22.5t19.5 23q-14 5 -26.5 14.5t-18.5 30.5zM152 303q13 -4 25 -12.5t22.5 -16.5t19.5 -14t17 -6q13 0 23 9.5t13 9.5
q5 0 5 -5q-4 -10 -9 -17q-5 -6 -13 -11t-22 -5q-17 0 -31 5.5t-27 12t-25 12t-25 5.5q-23 0 -33.5 -8t-20.5 -8l-5 1.5t-10 4.5t-9.5 7.5t-4.5 10.5q0 7 10 13t23.5 10t27.5 6.5t23 2.5q2 0 3.5 -0.5t3.5 -0.5z" />
    <glyph glyph-name="odieresis" unicode="&#xf6;" horiz-adv-x="244" 
d="M44 -15q-24 0 -44.5 15t-20.5 47q0 22 8.5 41.5t23.5 34t35 23.5t42 10h-1q1 26 16.5 44t44.5 18q25 0 44 -18.5t19 -46.5q0 -9 -2 -17.5t-5 -17.5q21 0 36.5 4t20.5 4q11 -2 -6 -16t-65 -22q-3 -5 -13.5 -21.5t-29 -34.5t-44.5 -32.5t-59 -14.5zM141 164q-4 -3 -4 -9
q0 -5 3.5 -12t12.5 -12q2 2 3 6.5t2 8.5q-2 0 -6.5 7t-10.5 12v-1zM89 142q-29 -5 -51.5 -29t-22.5 -56q0 -14 5.5 -22t16.5 -8q12 0 25.5 7t27 17.5t25 22.5t19.5 23q-14 5 -26.5 14.5t-18.5 30.5zM151 231q-4 0 -3.5 10t3 22t6 22.5t6.5 12.5q13 -5 27 -17q1 -2 -2.5 -10
t-9 -17t-13 -16t-14.5 -7zM190 231q-4 0 -4 10t2.5 22t6.5 22.5t7 12.5q14 -5 26 -17q1 -2 -2.5 -10t-9 -17t-12.5 -16t-14 -7z" />
    <glyph glyph-name="divide" unicode="&#xf7;" horiz-adv-x="321" 
d="M293 188q-5 -3 -21 -4.5t-57 -0.5q-20 0 -49 2t-56 4.5t-47.5 3.5t-23.5 0q-4 0 -4 1q-1 1 0 1.5t1 1.5q6 3 26 5t46.5 2.5t56 0.5h55h43.5t21 1q2 0 4 -2.5t3 -4.5q2 -2 3.5 -5.5t-1.5 -5.5q-5 -3 -21 -4.5t-57 -0.5q-20 0 -49 2t-56 4.5t-47.5 3.5t-23.5 0q-4 0 -4 1
q-1 1 0 1.5t1 1.5q6 3 26 5t46.5 2.5t56 0.5h55h43.5t21 1q2 0 4 -2.5t3 -4.5q2 -2 3.5 -5.5t-1.5 -5.5zM153 157q4 1 4 -5t-2.5 -15t-6.5 -17t-7 -11q-6 2 -12.5 4.5t-10.5 7.5q-1 2 2 7.5t8 11.5t11.5 10.5t13.5 6.5zM191 287q4 1 4 -5t-2.5 -15t-6.5 -17t-7 -11
q-6 2 -12.5 4.5t-10.5 7.5q-1 2 2 7.5t8 11.5t11.5 10.5t13.5 6.5z" />
    <glyph glyph-name="oslash" unicode="&#xf8;" horiz-adv-x="244" 
d="M192 255q0 -5 -3.5 -14.5t-13.5 -29.5q16 -8 26 -23t10 -35q0 -9 -2 -17.5t-5 -17.5q21 0 36.5 4t20.5 4q11 -2 -6 -16t-65 -22q-3 -5 -13.5 -21.5t-29 -34.5t-44.5 -32.5t-59 -14.5q-6 0 -14 2q-16 -23 -25.5 -38.5t-10.5 -19.5q-3 -5 -4 -5q-3 0 -3 4q0 8 7 24.5
t18 39.5q-14 7 -23.5 20.5t-9.5 34.5q0 22 8.5 41.5t23.5 34t35 23.5t42 10h-1q1 24 14.5 41.5t39.5 19.5q9 16 14.5 27t7.5 14q1 3 6.5 3.5t7.5 0.5q3 0 9 -0.5t6 -6.5zM89 142q-29 -5 -51.5 -29t-22.5 -56q0 -26 16 -30q14 26 29.5 53.5t30.5 53.5q-1 2 -1 4t-1 4zM134 97
q-5 2 -10.5 4.5t-10.5 5.5q-12 -17 -24.5 -36t-25.5 -37q20 10 39.5 28t31.5 35zM158 146q-2 0 -5 4.5t-8 9.5q-2 -2 -2.5 -4.5t-2.5 -4.5t-2 -4q4 -9 15 -16q2 2 3 6.5t2 8.5z" />
    <glyph glyph-name="ugrave" unicode="&#xf9;" horiz-adv-x="265" 
d="M264 42q5 4 8 0.5t0 -8.5q-2 -2 -10 -9.5t-19.5 -16t-26 -15t-28.5 -6.5q-10 0 -15 4.5t-7.5 10t-3 10.5t-0.5 7q0 20 5 36.5t10 36.5q-13 -13 -28.5 -30.5t-33.5 -33t-38.5 -26.5t-42.5 -11q-8 0 -18.5 2.5t-19 9t-14 17t-4.5 25.5q1 18 10 39t20 41t22 36t16 22
t14.5 7.5t18.5 -0.5t16 -7t7 -12t-11 -22t-30 -42q-15 -22 -22.5 -34t-11 -19t-3.5 -11v-9q0 -1 1 -1q14 -8 30 -3t32.5 18t32.5 30.5t30 35t25 32t18 20.5q6 5 14.5 10t19.5 2q8 -4 7 -16.5t-5 -17.5v-1q-5 -15 -11.5 -32.5t-12 -33.5t-9.5 -30.5t-4 -23.5q0 -6 3 -8
q10 0 22 4t23 9q12 6 24 14zM95 304q-8 5 -6 8.5t4 1.5q12 -5 36.5 -14.5t51.5 -17t51 -11t35 4.5q4 2 3 -3t-5 -11.5t-10.5 -12t-12.5 -5.5q-16 -3 -39 5t-45.5 19.5t-40.5 22t-22 13.5z" />
    <glyph glyph-name="uacute" unicode="&#xfa;" horiz-adv-x="265" 
d="M264 42q5 4 8 0.5t0 -8.5q-2 -2 -10 -9.5t-19.5 -16t-26 -15t-28.5 -6.5q-10 0 -15 4.5t-7.5 10t-3 10.5t-0.5 7q0 20 5 36.5t10 36.5q-13 -13 -28.5 -30.5t-33.5 -33t-38.5 -26.5t-42.5 -11q-8 0 -18.5 2.5t-19 9t-14 17t-4.5 25.5q1 18 10 39t20 41t22 36t16 22
t14.5 7.5t18.5 -0.5t16 -7t7 -12t-11 -22t-30 -42q-15 -22 -22.5 -34t-11 -19t-3.5 -11v-9q0 -1 1 -1q14 -8 30 -3t32.5 18t32.5 30.5t30 35t25 32t18 20.5q6 5 14.5 10t19.5 2q8 -4 7 -16.5t-5 -17.5v-1q-5 -15 -11.5 -32.5t-12 -33.5t-9.5 -30.5t-4 -23.5q0 -6 3 -8
q10 0 22 4t23 9q12 6 24 14zM265 304q-4 -3 -20 -12.5t-37 -20.5t-43.5 -19.5t-39.5 -8.5q-11 0 -23.5 10t-12.5 21q0 2 2 2q4 0 10 -2.5t12 -2.5q38 0 79.5 12t75.5 31q3 0 3 -3q0 -4 -4 -7h-2z" />
    <glyph glyph-name="ucircumflex" unicode="&#xfb;" horiz-adv-x="265" 
d="M264 42q5 4 8 0.5t0 -8.5q-2 -2 -10 -9.5t-19.5 -16t-26 -15t-28.5 -6.5q-10 0 -15 4.5t-7.5 10t-3 10.5t-0.5 7q0 20 5 36.5t10 36.5q-13 -13 -28.5 -30.5t-33.5 -33t-38.5 -26.5t-42.5 -11q-8 0 -18.5 2.5t-19 9t-14 17t-4.5 25.5q1 18 10 39t20 41t22 36t16 22
t14.5 7.5t18.5 -0.5t16 -7t7 -12t-11 -22t-30 -42q-15 -22 -22.5 -34t-11 -19t-3.5 -11v-9q0 -1 1 -1q14 -8 30 -3t32.5 18t32.5 30.5t30 35t25 32t18 20.5q6 5 14.5 10t19.5 2q8 -4 7 -16.5t-5 -17.5v-1q-5 -15 -11.5 -32.5t-12 -33.5t-9.5 -30.5t-4 -23.5q0 -6 3 -8
q10 0 22 4t23 9q12 6 24 14zM173 302q-3 -3 -15 -16t-27.5 -26.5t-31.5 -23.5t-27 -7q-4 0 -8.5 7t-7.5 15t-3.5 13.5t2.5 3.5q5 -5 12.5 -5.5t11.5 3.5h2q12 0 26 6t27.5 14t24 16t14.5 11q0 3 2 1q0 1 1 0.5t1 -1.5q4 -3 14.5 -11t24 -16t27.5 -14t26 -6h2q4 -4 11.5 -3.5
t12.5 5.5q3 2 2.5 -3.5t-3.5 -13.5t-7.5 -15t-8.5 -7q-11 -3 -27 7t-31.5 23.5t-27.5 26.5t-15 16h-2h-2z" />
    <glyph glyph-name="udieresis" unicode="&#xfc;" horiz-adv-x="265" 
d="M264 42q5 4 8 0.5t0 -8.5q-2 -2 -10 -9.5t-19.5 -16t-26 -15t-28.5 -6.5q-10 0 -15 4.5t-7.5 10t-3 10.5t-0.5 7q0 20 5 36.5t10 36.5q-13 -13 -28.5 -30.5t-33.5 -33t-38.5 -26.5t-42.5 -11q-8 0 -18.5 2.5t-19 9t-14 17t-4.5 25.5q1 18 10 39t20 41t22 36t16 22
t14.5 7.5t18.5 -0.5t16 -7t7 -12t-11 -22t-30 -42q-15 -22 -22.5 -34t-11 -19t-3.5 -11v-9q0 -1 1 -1q14 -8 30 -3t32.5 18t32.5 30.5t30 35t25 32t18 20.5q6 5 14.5 10t19.5 2q8 -4 7 -16.5t-5 -17.5v-1q-5 -15 -11.5 -32.5t-12 -33.5t-9.5 -30.5t-4 -23.5q0 -6 3 -8
q10 0 22 4t23 9q12 6 24 14zM151 231q-4 0 -3.5 10t3 22t6 22.5t6.5 12.5q13 -5 27 -17q1 -2 -2.5 -10t-9 -17t-13 -16t-14.5 -7zM190 231q-4 0 -4 10t2.5 22t6.5 22.5t7 12.5q14 -5 26 -17q1 -2 -2.5 -10t-9 -17t-12.5 -16t-14 -7z" />
    <glyph glyph-name="yacute" unicode="&#xfd;" horiz-adv-x="291" 
d="M216 174q9 10 19 18.5t20 11.5t20 -2.5t18 -22.5v-2q0 -20 -22 -49t-55.5 -64.5t-72 -74t-71.5 -77.5q-32 -38 -65 -80.5t-53 -87.5q45 54 84.5 101t70.5 82t50.5 55.5t22.5 22.5q2 1 7.5 4t5.5 -3q0 -3 -7 -11t-25.5 -30.5t-50 -63t-80.5 -107.5q-17 -23 -34 -47.5
t-40 -47.5q-6 -6 -14.5 -8.5t-16 -1.5t-13.5 7.5t-7 18.5q0 28 22 69t52.5 84t62.5 82t52 63q-19 -10 -39 -16.5t-43 -6.5q-14 0 -22 5.5t-12 13t-5 14.5t-1 11q1 16 13.5 41t28 49.5t30 44t19.5 23.5q1 1 8 0t14.5 -4t14 -8t6.5 -11q0 -5 -4.5 -11t-14.5 -19.5t-25.5 -36
t-37.5 -60.5q1 0 17.5 5t43 19.5t60 40.5t69.5 67zM268 304q-4 -3 -20 -12.5t-37 -20.5t-43.5 -19.5t-39.5 -8.5q-11 0 -23.5 10t-12.5 21q0 2 2 2q4 0 10 -2.5t12 -2.5q38 0 79.5 12t75.5 31q3 0 3 -3q0 -4 -4 -7h-2z" />
    <glyph glyph-name="ydieresis" unicode="&#xff;" horiz-adv-x="291" 
d="M216 174q9 10 19 18.5t20 11.5t20 -2.5t18 -22.5v-2q0 -20 -22 -49t-55.5 -64.5t-72 -74t-71.5 -77.5q-32 -38 -65 -80.5t-53 -87.5q45 54 84.5 101t70.5 82t50.5 55.5t22.5 22.5q2 1 7.5 4t5.5 -3q0 -3 -7 -11t-25.5 -30.5t-50 -63t-80.5 -107.5q-17 -23 -34 -47.5
t-40 -47.5q-6 -6 -14.5 -8.5t-16 -1.5t-13.5 7.5t-7 18.5q0 28 22 69t52.5 84t62.5 82t52 63q-19 -10 -39 -16.5t-43 -6.5q-14 0 -22 5.5t-12 13t-5 14.5t-1 11q1 16 13.5 41t28 49.5t30 44t19.5 23.5q1 1 8 0t14.5 -4t14 -8t6.5 -11q0 -5 -4.5 -11t-14.5 -19.5t-25.5 -36
t-37.5 -60.5q1 0 17.5 5t43 19.5t60 40.5t69.5 67zM151 231q-4 0 -3.5 10t3 22t6 22.5t6.5 12.5q13 -5 27 -17q1 -2 -2.5 -10t-9 -17t-13 -16t-14.5 -7zM190 231q-4 0 -4 10t2.5 22t6.5 22.5t7 12.5q14 -5 26 -17q1 -2 -2.5 -10t-9 -17t-12.5 -16t-14 -7z" />
    <glyph glyph-name="OE" unicode="&#x152;" horiz-adv-x="727" 
d="M387 -44q-26 3 -53.5 16.5t-46.5 39.5q-29 -17 -61 -27t-67 -10t-51.5 9.5t-16.5 34.5q0 5 4 13.5t12 8.5t18 -7.5t36 -7.5q11 0 25.5 2.5t33.5 10.5q9 4 20.5 9.5t25.5 14.5q-2 6 -2 12v13q0 60 36.5 111.5t90.5 85.5q0 6 0.5 11.5t0.5 12.5q0 19 -4 42t-13.5 43
t-25 33.5t-38.5 13.5q-20 0 -42.5 -8t-43.5 -19q-50 -25 -85.5 -65t-58 -85t-32.5 -90t-10 -81q0 -24 5 -43t11.5 -32t13 -20.5t9.5 -8.5q8 -5 11 -5.5t4 -4.5q0 -3 -4 -3q-12 0 -24 7.5t-22 24t-16.5 43.5t-6.5 65q0 41 9.5 83.5t28 83t46.5 76.5t64 64q14 10 31 21t36 20
t38 15t37 6q36 0 60.5 -17.5t39.5 -43.5t22 -56.5t9 -57.5q7 2 13 4.5t13 4.5q-7 14 -7 32q0 35 20.5 58t49.5 36.5t59 18.5t50 5q40 0 61.5 -12.5t32 -28t12.5 -30.5t2 -19q0 -3 -2.5 -9t-7.5 -12.5t-11.5 -11.5t-14.5 -5q-14 0 -14 12t-0.5 26t-10 26t-42.5 12l-20.5 -2.5
t-45.5 -9t-45.5 -18t-20.5 -30.5q0 -12 9 -27q19 3 39 3q12 0 32 -1.5t39.5 -7.5t33.5 -18t14 -33q0 -16 -7 -26t-17 -15.5t-20.5 -7.5t-16.5 -2q-32 0 -66 17t-57 40q-27 -4 -55 -17q-8 -65 -40.5 -127t-86.5 -104q11 -19 29.5 -30t39.5 -16.5t43 -7t40 -1.5q48 0 89 8.5
t71.5 18.5t49 18.5t20.5 8.5q3 3 10 3q4 0 4 -3q-1 -4 -12.5 -10.5t-25.5 -11.5q-10 -3 -29.5 -12.5t-48 -19t-65 -17t-79.5 -7.5q-14 0 -30 1t-32 3zM300 88q26 23 48.5 57t33.5 82q-34 -27 -57.5 -63t-24.5 -76zM617 275q-18 6 -39 9q8 -5 19 -6.5t20 -2.5z" />
    <glyph glyph-name="oe" unicode="&#x153;" horiz-adv-x="432" 
d="M205 3q-16 5 -25.5 19.5t-11.5 31.5q-9 -12 -21.5 -24t-28 -22t-34 -16.5t-39.5 -6.5q-24 0 -44.5 15t-20.5 47q0 22 8.5 41.5t23.5 34t35 23.5t42 10h-1q1 26 16.5 44t44.5 18q25 0 44 -18.5t19 -46.5v-9q25 26 58.5 46t68.5 22q24 1 37 -15.5t7 -42.5
q-8 -28 -25.5 -45.5t-37 -27.5t-38.5 -13.5t-30 -3.5q-9 0 -20.5 1t-16.5 10q-5 -4 -5.5 -9.5t-0.5 -10.5q0 -14 18.5 -21t40.5 -7q39 0 72 11t57 24t37.5 24t12.5 10q2 2 6.5 2.5t4.5 -4.5q0 -4 -4.5 -9t-8.5 -8q-5 -5 -20.5 -18.5t-40.5 -27.5t-57.5 -25.5t-69.5 -11.5
q-25 0 -52 9zM90 142q-29 -5 -51.5 -29t-22.5 -56q0 -14 5.5 -22t16.5 -8q12 0 25.5 7t27 17.5t25 22.5t19.5 23q-14 5 -26.5 14.5t-18.5 30.5zM329 159q-16 -4 -37.5 -15t-41.5 -28q5 0 14.5 1t20.5 5t23 12.5t21 24.5zM142 164q-4 -3 -4 -9q0 -5 3.5 -12t12.5 -12
q2 2 3 6.5t2 8.5q-2 0 -6.5 7t-10.5 12v-1z" />
    <glyph glyph-name="circumflex" unicode="&#x2c6;" horiz-adv-x="296" 
d="M147 302q-3 -3 -15 -16t-27.5 -26.5t-31.5 -23.5t-27 -7q-4 0 -8.5 7t-7.5 15t-3.5 13.5t2.5 3.5q5 -5 12.5 -5.5t11.5 3.5h2q12 0 26 6t27.5 14t24 16t14.5 11q0 3 2 1q0 1 1 0.5t1 -1.5q4 -3 14.5 -11t24 -16t27.5 -14t26 -6h2q4 -4 11.5 -3.5t12.5 5.5q3 2 2.5 -3.5
t-3.5 -13.5t-7.5 -15t-8.5 -7q-11 -3 -27 7t-31.5 23.5t-27.5 26.5t-15 16h-2h-2z" />
    <glyph glyph-name="ring" unicode="&#x2da;" horiz-adv-x="82" 
d="M18 222q-5 -1 -2 11t8.5 27.5t12 29.5t9.5 17q6 -2 13 -6t12 -9q0 -2 -5 -12.5t-13.5 -22.5t-18 -22.5t-16.5 -12.5zM32 249q7 2 14.5 14t6.5 14q-2 2 -4.5 3t-4.5 2q-2 -1 -4.5 -6.5t-5 -11.5t-3.5 -10.5t1 -4.5z" />
    <glyph glyph-name="tilde" unicode="&#x2dc;" horiz-adv-x="310" 
d="M148 303q13 -4 25 -12.5t22.5 -16.5t19.5 -14t17 -6q13 0 23 9.5t13 9.5q5 0 5 -5q-4 -10 -9 -17q-5 -6 -13 -11t-22 -5q-17 0 -31 5.5t-27 12t-25 12t-25 5.5q-23 0 -33.5 -8t-20.5 -8l-5 1.5t-10 4.5t-9.5 7.5t-4.5 10.5q0 7 10 13t23.5 10t27.5 6.5t23 2.5
q2 0 3.5 -0.5t3.5 -0.5z" />
    <glyph glyph-name="quoteright" unicode="&#x2019;" horiz-adv-x="116" 
d="M139 426q-2 -5 -10.5 -23.5t-21 -40.5t-27 -41.5t-28.5 -26.5q-5 -3 -13.5 -2t-16 3.5t-11 6t1.5 4.5q13 0 31.5 16t36 38t32.5 43.5t22 32.5q0 2 4 0.5t0 -10.5z" />
    <glyph glyph-name="Euro" unicode="&#x20ac;" horiz-adv-x="550" 
d="M531 414q-7 -20 -14 -26.5t-12 -5.5t-8.5 7t-4.5 13q-2 14 -2.5 28.5t-2.5 22.5q-1 -1 -2 -1t-3 -1q-36 -20 -72.5 -51.5t-71 -69t-64.5 -78t-52 -79t-35 -73.5t-13 -60q0 -15 5.5 -24.5t13.5 -14t17.5 -6.5t18.5 -2q8 0 13.5 1t7.5 1q11 0 23 -10.5t16 -21.5l-3 -1l3 1
q0 -11 -19.5 -16t-49.5 -5q-8 0 -24 2.5t-32 12t-28 29t-12 54.5q0 46 20.5 96t53 98.5t73 93t81 80.5t76.5 60t60 32h1q17 -3 25.5 -11t12.5 -20t4 -26.5v-28.5zM326 188q-5 -3 -21 -4.5t-57 -0.5q-20 0 -49 2t-56 4.5t-47.5 3.5t-23.5 0q-4 0 -4 1q-1 1 0 1.5t1 1.5
q6 3 26 5t46.5 2.5t56 0.5h55h43.5t21 1q2 0 4 -2.5t3 -4.5q2 -2 3.5 -5.5t-1.5 -5.5q-5 -3 -21 -4.5t-57 -0.5q-20 0 -49 2t-56 4.5t-47.5 3.5t-23.5 0q-4 0 -4 1q-1 1 0 1.5t1 1.5q6 3 26 5t46.5 2.5t56 0.5h55h43.5t21 1q2 0 4 -2.5t3 -4.5q2 -2 3.5 -5.5t-1.5 -5.5z
M284 116q-5 -3 -21 -4.5t-57 -0.5q-20 0 -49 2t-56 4.5t-47.5 3.5t-23.5 0q-4 0 -4 1q-1 1 0 1.5t1 1.5q6 3 26 5t46.5 2.5t56 0.5h55h43.5t21 1q2 0 4 -2.5t3 -4.5q2 -2 3.5 -5.5t-1.5 -5.5z" />
    <glyph glyph-name="trademark" unicode="&#x2122;" horiz-adv-x="608" 
d="M95 482q-1 0 -6.5 6t-5.5 17q0 3 5.5 4.5t20.5 2t43 0.5t74 1q2 -6 7.5 5.5t8.5 18t6 8t10 1.5q3 0 9.5 -1t6.5 -6q0 -4 -5.5 -16.5t-8.5 -9.5q76 -1 152.5 -5t152.5 -12q4 0 6 -3q-2 -3 -4.5 -3h-6.5q-1 0 -15.5 -0.5t-38.5 -1t-55.5 -1t-66.5 -1.5t-71.5 -1.5
t-69.5 -1.5q-21 -38 -35 -57.5t-30.5 -41.5t-23.5 -30.5t-20.5 -27t-22 -31t-8.5 -14.5q-3 -5 -5 -5q-1 0 -2 1t-1 2q2 2 2 4q1 5 2 6q2 9 13.5 30t19 34.5t27 44.5t48.5 85q-46 -1 -76.5 -1h-34.5h-1zM386 310v-2q-3 0 -4 2v1l2.5 7.5t7.5 19t7 17.5t12 20
q-13 -7 -28.5 -17t-30.5 -18.5t-25 -15t-15 -6.5q-1 0 -2 1t-3 5q0 2 -1 11t-2 20.5t-2 25t-2 26.5q-8 -11 -20 -24.5t-27 -33.5t-23.5 -29t-8.5 -10v-2l-2 -1q-3 0 -3 2q-1 1 0 2l1 1q-1 5 4.5 15.5t18.5 31t22.5 35.5t18 28t14 21.5t5.5 10.5t7 2q6 0 12 -1t7 -3v-4.5
t0.5 -6.5t0 -11.5t1.5 -18.5q0 -9 -2.5 -21t-4.5 -24.5t-4 -23.5t-2 -16q5 4 16.5 13t26 20t28.5 23t26.5 22.5t20 18.5t6.5 11q-1 2 2.5 2.5t9.5 0.5t12.5 -1.5t6.5 -3.5q1 -2 -0.5 -5t-3.5 -8t-6.5 -12.5t-10.5 -18.5q-8 -10 -20.5 -25.5t-18 -22t-15.5 -17t-9 -12.5v-1z
M143 288q-2 0 -7 1.5t-8 3.5q-2 0 2 0.5t14.5 0.5h30.5t130.5 -1t167.5 -2q3 0 5 -1h-2.5h-5.5l-10.5 -0.5t-27 -0.5t-130.5 -0.5t-135 -0.5h-24v0z" />
    </font>
</defs>
</svg>
