<?xml version="1.0" standalone="no"?>
<!DOCTYPE svg PUBLIC "-//W3C//DTD SVG 1.1//EN" "http://www.w3.org/Graphics/SVG/1.1/DTD/svg11.dtd" >
<svg xmlns="http://www.w3.org/2000/svg" xmlns:xlink="http://www.w3.org/1999/xlink" version="1.1">
<metadata>
Created by FontForge 20161003 at Tue Jun 20 18:05:39 2017
 By www-data
Typeface (c)NALGames. 2014. All Rights Reserved
</metadata>
<defs>
<font id="BoldTestament" horiz-adv-x="600" >
  <font-face 
    font-family="BoldTestament"
    font-weight="400"
    font-stretch="normal"
    units-per-em="2048"
    panose-1="2 0 5 0 0 0 0 0 0 0"
    ascent="1638"
    descent="-410"
    x-height="1100"
    cap-height="1400"
    bbox="-300 -409.999 1300 1826.67"
    underline-thickness="150"
    underline-position="-442"
    unicode-range="U+001D-F002"
  />
<missing-glyph 
d="M200 600v-600h-200v1400h200l100 -600v600h200v-1400h-200z" />
    <glyph glyph-name=".notdef" 
d="M200 600v-600h-200v1400h200l100 -600v600h200v-1400h-200z" />
    <glyph glyph-name=".null" horiz-adv-x="0" 
 />
    <glyph glyph-name=".null" horiz-adv-x="0" 
 />
    <glyph glyph-name="nonmarkingreturn" horiz-adv-x="508" 
 />
    <glyph glyph-name="space" unicode=" " horiz-adv-x="300" 
 />
    <glyph glyph-name="space" unicode="&#xa0;" horiz-adv-x="300" 
 />
    <glyph glyph-name="exclam" unicode="!" horiz-adv-x="300" 
d="M0 0v200h200v-200h-200zM200 1400v-1100h-200v1100h200z" />
    <glyph glyph-name="quotedbl" unicode="&#x22;" horiz-adv-x="550" 
d="M0 1300v100h200v-100q0 -100 -30 -250h-140q-30 150 -30 250zM250 1300v100h200v-100q0 -100 -30 -250h-140q-30 150 -30 250z" />
    <glyph glyph-name="numbersign" unicode="#" horiz-adv-x="800" 
d="M100 400v600h-100v200h100v200h200v-200h100v200h200v-200h100v-200h-100v-600h100v-200h-100v-200h-200v200h-100v-200h-200v200h-100v200h100zM300 1000v-600h100v600h-100z" />
    <glyph glyph-name="dollar" unicode="$" 
d="M150 1380v120h200v-120q42 -18 77 -53q73 -73 73 -177v-100l-200 -50v150q0 21 -14.5 35.5t-35.5 14.5t-35.5 -14.5t-14.5 -35.5v-300q0 -21 14.5 -35.5t35.5 -14.5q104 0 177 -73t73 -177v-300q0 -104 -73 -177q-35 -35 -77 -53v-120h-200v120q-42 18 -77 53
q-73 73 -73 177v100l200 50v-150q0 -21 14.5 -35.5t35.5 -14.5t35.5 14.5t14.5 35.5v300q0 21 -14.5 35.5t-35.5 14.5q-104 0 -177 73t-73 177v300q0 104 73 177q35 35 77 53z" />
    <glyph glyph-name="percent" unicode="%" horiz-adv-x="900" 
d="M810 1400l-590 -1400h-220l590 1400h220zM298.5 1349q51.5 -51 51.5 -124q0 -72 -51.5 -123.5t-123.5 -51.5q-73 0 -124 51.5t-51 123.5q0 73 51 124t124 51q72 0 123.5 -51zM175 1250q-10 0 -17.5 -7.5t-7.5 -17.5t7.5 -17.5t17.5 -7.5t17.5 7.5t7.5 17.5t-7.5 17.5
t-17.5 7.5zM748.5 299q51.5 -51 51.5 -124q0 -72 -51.5 -123.5t-123.5 -51.5q-73 0 -124 51.5t-51 123.5q0 73 51 124t124 51q72 0 123.5 -51zM625 200q-10 0 -17.5 -7.5t-7.5 -17.5t7.5 -17.5t17.5 -7.5t17.5 7.5t7.5 17.5t-7.5 17.5t-17.5 7.5z" />
    <glyph glyph-name="ampersand" unicode="&#x26;" horiz-adv-x="650" 
d="M500 1150v-100l-200 -50v150q0 21 -14.5 35.5t-35.5 14.5t-35.5 -14.5t-14.5 -35.5v-300q0 -21 14.5 -35.5t35.5 -14.5h50v100l200 -50v-50h50v-200h-50v-350q0 -21 14.5 -35.5t35.5 -14.5v-200q-85 0 -150 49q-65 -49 -150 -49q-104 0 -177 73t-73 177v300q0 85 49 150
q-49 65 -49 150v300q0 104 73 177t177 73t177 -73t73 -177zM200 250q0 -21 14.5 -35.5t35.5 -14.5t35.5 14.5t14.5 35.5v350h-50q-21 0 -35.5 -14.5t-14.5 -35.5v-300z" />
    <glyph glyph-name="quotesingle" unicode="'" horiz-adv-x="300" 
d="M0 1300v100h200v-100q0 -100 -30 -250h-140q-30 150 -30 250z" />
    <glyph glyph-name="parenleft" unicode="(" horiz-adv-x="450" 
d="M250 1500h100v-200h-100q-21 0 -35.5 -14.5t-14.5 -35.5v-1100q0 -21 14.5 -35.5t35.5 -14.5h100v-200h-100q-104 0 -177 73t-73 177v1100q0 104 73 177t177 73z" />
    <glyph glyph-name="parenright" unicode=")" horiz-adv-x="450" 
d="M100 -100h-100v200h100q21 0 35.5 14.5t14.5 35.5v1100q0 21 -14.5 35.5t-35.5 14.5h-100v200h100q104 0 177 -73t73 -177v-1100q0 -104 -73 -177t-177 -73z" />
    <glyph glyph-name="asterisk" unicode="*" 
d="M250 1291l106 106l141 -141l-106 -106l106 -106l-141 -141l-106 106l-106 -106l-141 141l106 106l-106 106l141 141z" />
    <glyph glyph-name="plus" unicode="+" 
d="M350 800h150v-200h-150v-150h-200v150h-150v200h150v150h200v-150z" />
    <glyph glyph-name="comma" unicode="," horiz-adv-x="300" 
d="M100 0h-100v200h200v-200q0 -100 -50 -150t-150 -50v100q100 0 100 100z" />
    <glyph glyph-name="hyphen" unicode="-" 
d="M500 800v-200h-500v200h500z" />
    <glyph glyph-name="hyphen" unicode="&#xad;" 
d="M500 800v-200h-500v200h500z" />
    <glyph glyph-name="period" unicode="." horiz-adv-x="300" 
d="M200 200v-200h-200v200h200z" />
    <glyph glyph-name="slash" unicode="/" 
d="M550 1500l-390 -1600h-210l390 1600h210z" />
    <glyph glyph-name="zero" unicode="0" 
d="M0 1150q0 104 73 177t177 73t177 -73t73 -177v-900q0 -104 -73 -177t-177 -73t-177 73t-73 177v900zM300 1150q0 21 -14.5 35.5t-35.5 14.5t-35.5 -14.5t-14.5 -35.5v-900q0 -21 14.5 -35.5t35.5 -14.5t35.5 14.5t14.5 35.5v900z" />
    <glyph glyph-name="one" unicode="1" horiz-adv-x="400" 
d="M300 1400v-1400h-200v1200h-100l50 200h250z" />
    <glyph glyph-name="two" unicode="2" 
d="M200 1150v-150l-200 50v100q0 104 73 177t177 73t177 -73t73 -177v-300q0 -104 -73 -177t-177 -73q-21 0 -35.5 -14.5t-14.5 -35.5v-350h300v-200h-500v550q0 104 73 177t177 73q21 0 35.5 14.5t14.5 35.5v300q0 21 -14.5 35.5t-35.5 14.5t-35.5 -14.5t-14.5 -35.5z" />
    <glyph glyph-name="three" unicode="3" 
d="M0 250v100l200 50v-150q0 -21 14.5 -35.5t35.5 -14.5t35.5 14.5t14.5 35.5v300q0 21 -14.5 35.5t-35.5 14.5h-50v200h50q21 0 35.5 14.5t14.5 35.5v300q0 21 -14.5 35.5t-35.5 14.5t-35.5 -14.5t-14.5 -35.5v-150l-200 50v100q0 104 73 177t177 73t177 -73t73 -177v-300
q0 -85 -49 -150q49 -65 49 -150v-300q0 -104 -73 -177t-177 -73t-177 73t-73 177z" />
    <glyph glyph-name="four" unicode="4" horiz-adv-x="650" 
d="M0 600v800h200v-600h100v600h200v-600h50v-200h-50v-600h-200v600h-300z" />
    <glyph glyph-name="five" unicode="5" 
d="M0 1400h500v-200h-300v-355q24 5 50 5q104 0 177 -73t73 -177v-350q0 -104 -73 -177t-177 -73t-177 73t-73 177v150l200 50v-200q0 -21 14.5 -35.5t35.5 -14.5t35.5 14.5t14.5 35.5v350q0 21 -14.5 35.5t-35.5 14.5t-35.5 -14.5t-14.5 -35.5h-200v800z" />
    <glyph glyph-name="six" unicode="6" 
d="M500 1150v-100l-200 -50v150q0 21 -14.5 35.5t-35.5 14.5t-35.5 -14.5t-14.5 -35.5v-305q24 5 50 5q104 0 177 -73t73 -177v-350q0 -104 -73 -177t-177 -73t-177 73t-73 177v900q0 104 73 177t177 73t177 -73t73 -177zM200 250q0 -21 14.5 -35.5t35.5 -14.5t35.5 14.5
t14.5 35.5v350q0 21 -14.5 35.5t-35.5 14.5t-35.5 -14.5t-14.5 -35.5v-350z" />
    <glyph glyph-name="seven" unicode="7" 
d="M290 1200h-290v200h500v-200l-290 -1200h-210z" />
    <glyph glyph-name="eight" unicode="8" 
d="M500 250q0 -104 -73 -177t-177 -73t-177 73t-73 177v300q0 85 49 150q-49 65 -49 150v300q0 104 73 177t177 73t177 -73t73 -177v-300q0 -85 -49 -150q49 -65 49 -150v-300zM300 1150q0 21 -14.5 35.5t-35.5 14.5t-35.5 -14.5t-14.5 -35.5v-300q0 -21 14.5 -35.5
t35.5 -14.5t35.5 14.5t14.5 35.5v300zM250 200q21 0 35.5 14.5t14.5 35.5v300q0 21 -14.5 35.5t-35.5 14.5t-35.5 -14.5t-14.5 -35.5v-300q0 -21 14.5 -35.5t35.5 -14.5z" />
    <glyph glyph-name="nine" unicode="9" 
d="M0 250v100l200 50v-150q0 -21 14.5 -35.5t35.5 -14.5t35.5 14.5t14.5 35.5v305q-24 -5 -50 -5q-104 0 -177 73t-73 177v350q0 104 73 177t177 73t177 -73t73 -177v-900q0 -104 -73 -177t-177 -73t-177 73t-73 177zM300 1150q0 21 -14.5 35.5t-35.5 14.5t-35.5 -14.5
t-14.5 -35.5v-350q0 -21 14.5 -35.5t35.5 -14.5t35.5 14.5t14.5 35.5v350z" />
    <glyph glyph-name="colon" unicode=":" horiz-adv-x="300" 
d="M200 600v-200h-200v200h200zM200 1000v-200h-200v200h200z" />
    <glyph glyph-name="semicolon" unicode=";" horiz-adv-x="300" 
d="M200 1000v-200h-200v200h200zM100 400h-100v200h200v-200q0 -100 -50 -150t-150 -50v100q100 0 100 100z" />
    <glyph glyph-name="semicolon" unicode="&#x37e;" horiz-adv-x="300" 
d="M200 1000v-200h-200v200h200zM100 400h-100v200h200v-200q0 -100 -50 -150t-150 -50v100q100 0 100 100z" />
    <glyph glyph-name="less" unicode="&#x3c;" horiz-adv-x="750" 
d="M301 730l348 -70v-210l-649 180v200l649 180v-210z" />
    <glyph glyph-name="equal" unicode="=" 
d="M500 650v-200h-500v200h500zM500 950v-200h-500v200h500z" />
    <glyph glyph-name="greater" unicode="&#x3e;" horiz-adv-x="750" 
d="M347 730l-347 70v210l649 -180v-200l-649 -180v210z" />
    <glyph glyph-name="question" unicode="?" 
d="M200 1150v-150l-200 50v100q0 104 73 177t177 73t177 -73t73 -177v-300q0 -104 -73 -177t-177 -73q-21 0 -35.5 -14.5t-14.5 -35.5v-250h-200v250q0 104 73 177t177 73q21 0 35.5 14.5t14.5 35.5v300q0 21 -14.5 35.5t-35.5 14.5t-35.5 -14.5t-14.5 -35.5zM0 0v200h200
v-200h-200z" />
    <glyph glyph-name="at" unicode="@" horiz-adv-x="1200" 
d="M800 1095v-595h97q3 24 3 50v300q0 143 -100 245zM600 850q0 21 -14.5 35.5t-35.5 14.5t-35.5 -14.5t-14.5 -35.5v-300q0 -21 14.5 -35.5t35.5 -14.5t35.5 14.5t14.5 35.5v300zM795 1100q-102 100 -245 100q-145 0 -247.5 -102.5t-102.5 -247.5v-300q0 -145 103 -247
q84 -85 197 -100v-3h450l49 -200h-449q-228 0 -389 161t-161 389v300q0 228 161 389t389 161t389 -161t161 -389v-300q0 -137 -58 -250h-342l-15 38q-60 -38 -135 -38q-104 0 -177 73t-73 177v300q0 104 73 177t177 73q75 0 135 -38l15 38h95z" />
    <glyph glyph-name="A" unicode="A" 
d="M186 150l-16 -150h-200l180 1400h200l180 -1400h-200l-16 150h-128zM293 350l-43 400l-43 -400h86z" />
    <glyph glyph-name="B" unicode="B" 
d="M0 0v1400h250q104 0 177 -73t73 -177v-300q0 -85 -49 -150q49 -65 49 -150v-300q0 -104 -73 -177t-177 -73h-250zM200 1200v-400h50q21 0 35.5 14.5t14.5 35.5v300q0 21 -14.5 35.5t-35.5 14.5h-50zM200 600v-400h50q21 0 35.5 14.5t14.5 35.5v300q0 21 -14.5 35.5
t-35.5 14.5h-50z" />
    <glyph glyph-name="C" unicode="C" 
d="M500 1150v-100l-200 -50v150q0 21 -14.5 35.5t-35.5 14.5t-35.5 -14.5t-14.5 -35.5v-900q0 -21 14.5 -35.5t35.5 -14.5t35.5 14.5t14.5 35.5v150l200 -50v-100q0 -104 -73 -177t-177 -73t-177 73t-73 177v900q0 104 73 177t177 73t177 -73t73 -177z" />
    <glyph glyph-name="D" unicode="D" 
d="M250 200q21 0 35.5 14.5t14.5 35.5v900q0 21 -14.5 35.5t-35.5 14.5h-50v-1000h50zM250 1400q104 0 177 -73t73 -177v-900q0 -104 -73 -177t-177 -73h-250v1400h250z" />
    <glyph glyph-name="E" unicode="E" horiz-adv-x="500" 
d="M200 200h200v-200h-400v1400h400v-200h-200v-400h150v-200h-150v-400z" />
    <glyph glyph-name="F" unicode="F" horiz-adv-x="500" 
d="M400 1400v-200h-200v-400h150v-200h-150v-600h-200v1400h400z" />
    <glyph glyph-name="G" unicode="G" 
d="M500 1150v-150h-200v150q0 21 -14.5 35.5t-35.5 14.5t-35.5 -14.5t-14.5 -35.5v-900q0 -21 14.5 -35.5t35.5 -14.5t35.5 14.5t14.5 35.5v350h-50l20 200h230v-550q0 -104 -73 -177t-177 -73t-177 73t-73 177v900q0 104 73 177t177 73t177 -73t73 -177z" />
    <glyph glyph-name="H" unicode="H" 
d="M200 600v-600h-200v1400h200v-600h100v600h200v-1400h-200v600h-100z" />
    <glyph glyph-name="I" unicode="I" horiz-adv-x="300" 
d="M200 1400v-1400h-200v1400h200z" />
    <glyph glyph-name="J" unicode="J" 
d="M300 250v1150h200v-1150q0 -104 -73 -177t-177 -73t-177 73t-73 177v100l200 50v-150q0 -21 14.5 -35.5t35.5 -14.5t35.5 14.5t14.5 35.5z" />
    <glyph glyph-name="K" unicode="K" 
d="M200 850l120 550h210l-175 -700l175 -700h-210l-120 550v-550h-200v1400h200v-550z" />
    <glyph glyph-name="L" unicode="L" horiz-adv-x="500" 
d="M0 0v1400h200v-1200h200v-200h-400z" />
    <glyph glyph-name="M" unicode="M" horiz-adv-x="700" 
d="M275 150l-75 450v-600h-200v1400h200l100 -600l100 600h200v-1400h-200v600l-75 -450h-50z" />
    <glyph glyph-name="N" unicode="N" 
d="M200 600v-600h-200v1400h200l100 -600v600h200v-1400h-200z" />
    <glyph glyph-name="O" unicode="O" 
d="M0 1150q0 104 73 177t177 73t177 -73t73 -177v-900q0 -104 -73 -177t-177 -73t-177 73t-73 177v900zM300 1150q0 21 -14.5 35.5t-35.5 14.5t-35.5 -14.5t-14.5 -35.5v-900q0 -21 14.5 -35.5t35.5 -14.5t35.5 14.5t14.5 35.5v900z" />
    <glyph glyph-name="P" unicode="P" 
d="M200 1200v-400h50q21 0 35.5 14.5t14.5 35.5v300q0 21 -14.5 35.5t-35.5 14.5h-50zM200 600v-600h-200v1400h250q104 0 177 -73t73 -177v-300q0 -104 -73 -177t-177 -73h-50z" />
    <glyph glyph-name="Q" unicode="Q" 
d="M0 1150q0 104 73 177t177 73t177 -73t73 -177v-900q0 -86 -50 -151q0 -20 15 -34q14 -15 35 -15v-200q-104 0 -177 73q-35 35 -53 78q-10 -1 -20 -1q-104 0 -177 73t-73 177v900zM300 1150q0 21 -14.5 35.5t-35.5 14.5t-35.5 -14.5t-14.5 -35.5v-900q0 -21 14.5 -35.5
t35.5 -14.5t35.5 14.5t14.5 35.5v900z" />
    <glyph glyph-name="R" unicode="R" 
d="M200 1200v-400h50q21 0 35.5 14.5t14.5 35.5v300q0 21 -14.5 35.5t-35.5 14.5h-50zM200 600v-600h-200v1400h250q104 0 177 -73t73 -177v-300q0 -85 -49 -150q49 -65 49 -150v-550h-200v550q0 21 -14.5 35.5t-35.5 14.5h-50z" />
    <glyph glyph-name="S" unicode="S" 
d="M500 1150v-100l-200 -50v150q0 21 -14.5 35.5t-35.5 14.5t-35.5 -14.5t-14.5 -35.5v-300q0 -21 14.5 -35.5t35.5 -14.5q104 0 177 -73t73 -177v-300q0 -104 -73 -177t-177 -73t-177 73t-73 177v100l200 50v-150q0 -21 14.5 -35.5t35.5 -14.5t35.5 14.5t14.5 35.5v300
q0 21 -14.5 35.5t-35.5 14.5q-104 0 -177 73t-73 177v300q0 104 73 177t177 73t177 -73t73 -177z" />
    <glyph glyph-name="T" unicode="T" 
d="M350 1200v-1200h-200v1200h-150v200h500v-200h-150z" />
    <glyph glyph-name="U" unicode="U" 
d="M0 250v1150h200v-1150q0 -21 14.5 -35.5t35.5 -14.5t35.5 14.5t14.5 35.5v1150h200v-1150q0 -104 -73 -177t-177 -73t-177 73t-73 177z" />
    <glyph glyph-name="V" unicode="V" 
d="M250 650l80 750h200l-180 -1400h-200l-180 1400h200z" />
    <glyph glyph-name="W" unicode="W" horiz-adv-x="1000" 
d="M450 622l-80 -622h-200l-180 1400h200l80 -750l80 750h200l80 -750l80 750h200l-180 -1400h-200z" />
    <glyph glyph-name="X" unicode="X" 
d="M250 1050l70 350h210l-175 -700l175 -700h-210l-70 350l-70 -350h-210l175 700l-175 700h210z" />
    <glyph glyph-name="Y" unicode="Y" 
d="M150 596l-180 804h210l70 -450l70 450h210l-180 -804v-596h-200v596z" />
    <glyph glyph-name="Z" unicode="Z" 
d="M290 1200h-290v200h500v-200l-290 -1000h290v-200h-500v200z" />
    <glyph glyph-name="bracketleft" unicode="[" horiz-adv-x="450" 
d="M200 100h150v-200h-350v1600h350v-200h-150v-1200z" />
    <glyph glyph-name="backslash" unicode="\" 
d="M340 -100l-390 1600h210l390 -1600h-210z" />
    <glyph glyph-name="bracketright" unicode="]" horiz-adv-x="450" 
d="M150 1300h-150v200h350v-1600h-350v200h150v1200z" />
    <glyph glyph-name="asciicircum" unicode="^" 
d="M187 1001h-187l160 399h178l160 -399h-187l-62 214z" />
    <glyph glyph-name="underscore" unicode="_" 
d="M500 200v-200h-500v200h500z" />
    <glyph glyph-name="grave" unicode="`" horiz-adv-x="350" 
d="M200 1400l50 -250h-150l-100 250h200z" />
    <glyph glyph-name="a" unicode="a" 
d="M0 850q0 104 73 177t177 73q75 0 135 -38l15 38h100v-1100h-100l-15 38q-60 -38 -135 -38q-104 0 -177 73t-73 177v600zM300 850q0 21 -14.5 35.5t-35.5 14.5t-35.5 -14.5t-14.5 -35.5v-600q0 -21 14.5 -35.5t35.5 -14.5t35.5 14.5t14.5 35.5v600z" />
    <glyph glyph-name="b" unicode="b" 
d="M200 1095q24 5 50 5q104 0 177 -73t73 -177v-600q0 -104 -73 -177t-177 -73q-75 0 -135 38l-15 -38h-100v1400h200v-305zM300 850q0 21 -14.5 35.5t-35.5 14.5t-35.5 -14.5t-14.5 -35.5v-600q0 -21 14.5 -35.5t35.5 -14.5t35.5 14.5t14.5 35.5v600z" />
    <glyph glyph-name="c" unicode="c" 
d="M300 250v100l200 -50v-50q0 -104 -73 -177t-177 -73t-177 73t-73 177v600q0 104 73 177t177 73t177 -73t73 -177v-50l-200 -50v100q0 21 -14.5 35.5t-35.5 14.5t-35.5 -14.5t-14.5 -35.5v-600q0 -21 14.5 -35.5t35.5 -14.5t35.5 14.5t14.5 35.5z" />
    <glyph glyph-name="d" unicode="d" 
d="M0 850q0 104 73 177t177 73q26 0 50 -5v305h200v-1400h-100l-15 38q-60 -38 -135 -38q-104 0 -177 73t-73 177v600zM300 850q0 21 -14.5 35.5t-35.5 14.5t-35.5 -14.5t-14.5 -35.5v-600q0 -21 14.5 -35.5t35.5 -14.5t35.5 14.5t14.5 35.5v600z" />
    <glyph glyph-name="e" unicode="e" 
d="M300 850q0 21 -14.5 35.5t-35.5 14.5t-35.5 -14.5t-14.5 -35.5v-200h100v200zM0 850q0 104 73 177t177 73t177 -73t73 -177v-400h-300v-200q0 -21 14.5 -35.5t35.5 -14.5t35.5 14.5t14.5 35.5v100l200 -50v-50q0 -104 -73 -177t-177 -73t-177 73t-73 177v600z" />
    <glyph glyph-name="f" unicode="f" horiz-adv-x="450" 
d="M250 800v-800h-200v800h-50v200h50v150q0 104 73 177t177 73h50v-200h-50q-21 0 -35.5 -14.5t-14.5 -35.5v-150h100v-200h-100z" />
    <glyph glyph-name="g" unicode="g" 
d="M0 850q0 104 73 177t177 73q75 0 135 -38l15 38h100v-850q0 -104 -73 -177t-177 -73q-21 0 -35.5 -14.5t-14.5 -35.5t14.5 -35.5t35.5 -14.5h150l50 -200h-200q-104 0 -177 73t-73 177q0 85 49 150q-49 65 -49 150v600zM300 850q0 21 -14.5 35.5t-35.5 14.5t-35.5 -14.5
t-14.5 -35.5v-600q0 -21 14.5 -35.5t35.5 -14.5t35.5 14.5t14.5 35.5v600z" />
    <glyph glyph-name="h" unicode="h" 
d="M500 850v-850h-200v850q0 21 -14.5 35.5t-35.5 14.5t-35.5 -14.5t-14.5 -35.5v-850h-200v1400h200v-305q24 5 50 5q104 0 177 -73t73 -177z" />
    <glyph glyph-name="i" unicode="i" horiz-adv-x="300" 
d="M0 1200v200h200v-200h-200zM200 1100v-1100h-200v1100h200z" />
    <glyph glyph-name="j" unicode="j" horiz-adv-x="300" 
d="M0 1200v200h200v-200h-200zM0 1100h200v-1150q0 -104 -73 -177t-177 -73t-177 73t-73 177v50l200 50v-100q0 -21 14.5 -35.5t35.5 -14.5t35.5 14.5t14.5 35.5v1150z" />
    <glyph glyph-name="k" unicode="k" 
d="M200 668l120 432h210l-175 -550l175 -550h-210l-120 432v-432h-200v1400h200v-732z" />
    <glyph glyph-name="l" unicode="l" horiz-adv-x="300" 
d="M200 1400v-1400h-200v1400h200z" />
    <glyph glyph-name="m" unicode="m" horiz-adv-x="900" 
d="M0 1100h100l15 -38q60 38 135 38q85 0 150 -49q65 49 150 49q104 0 177 -73t73 -177v-850h-200v850q0 21 -14.5 35.5t-35.5 14.5t-35.5 -14.5t-14.5 -35.5v-850h-200v850q0 21 -14.5 35.5t-35.5 14.5t-35.5 -14.5t-14.5 -35.5v-850h-200v1100z" />
    <glyph glyph-name="n" unicode="n" 
d="M500 850v-850h-200v850q0 21 -14.5 35.5t-35.5 14.5t-35.5 -14.5t-14.5 -35.5v-850h-200v1100h100l15 -38q60 38 135 38q104 0 177 -73t73 -177z" />
    <glyph glyph-name="o" unicode="o" 
d="M0 850q0 104 73 177t177 73t177 -73t73 -177v-600q0 -104 -73 -177t-177 -73t-177 73t-73 177v600zM300 850q0 21 -14.5 35.5t-35.5 14.5t-35.5 -14.5t-14.5 -35.5v-600q0 -21 14.5 -35.5t35.5 -14.5t35.5 14.5t14.5 35.5v600z" />
    <glyph glyph-name="p" unicode="p" 
d="M500 250q0 -104 -73 -177t-177 -73q-26 0 -50 5v-305h-200v1400h100l15 -38q60 38 135 38q104 0 177 -73t73 -177v-600zM200 250q0 -21 14.5 -35.5t35.5 -14.5t35.5 14.5t14.5 35.5v600q0 21 -14.5 35.5t-35.5 14.5t-35.5 -14.5t-14.5 -35.5v-600z" />
    <glyph glyph-name="q" unicode="q" 
d="M300 5q-24 -5 -50 -5q-104 0 -177 73t-73 177v600q0 104 73 177t177 73q75 0 135 -38l15 38h100v-1400h-200v305zM200 250q0 -21 14.5 -35.5t35.5 -14.5t35.5 14.5t14.5 35.5v600q0 21 -14.5 35.5t-35.5 14.5t-35.5 -14.5t-14.5 -35.5v-600z" />
    <glyph glyph-name="r" unicode="r" 
d="M0 1100h100l15 -38q60 38 135 38q104 0 177 -73t73 -177v-50l-200 -50v100q0 21 -14.5 35.5t-35.5 14.5t-35.5 -14.5t-14.5 -35.5v-850h-200v1100z" />
    <glyph glyph-name="s" unicode="s" 
d="M500 850v-50l-200 -50v100q0 21 -14.5 35.5t-35.5 14.5t-35.5 -14.5t-14.5 -35.5v-150q0 -21 14.5 -35.5t35.5 -14.5q104 0 177 -73t73 -177v-150q0 -104 -73 -177t-177 -73t-177 73t-73 177v50l200 50v-100q0 -21 14.5 -35.5t35.5 -14.5t35.5 14.5t14.5 35.5v150
q0 21 -14.5 35.5t-35.5 14.5q-104 0 -177 73t-73 177v150q0 104 73 177t177 73t177 -73t73 -177z" />
    <glyph glyph-name="t" unicode="t" horiz-adv-x="450" 
d="M50 1100v300h200v-300h100v-200h-100v-650q0 -21 14.5 -35.5t35.5 -14.5h50v-200h-50q-104 0 -177 73t-73 177v650h-50v200h50z" />
    <glyph glyph-name="u" unicode="u" 
d="M0 250v850h200v-850q0 -21 14.5 -35.5t35.5 -14.5t35.5 14.5t14.5 35.5v850h200v-1100h-100l-15 38q-60 -38 -135 -38q-104 0 -177 73t-73 177z" />
    <glyph glyph-name="v" unicode="v" 
d="M250 511l70 589h210l-180 -1100h-200l-180 1100h210z" />
    <glyph glyph-name="w" unicode="w" horiz-adv-x="950" 
d="M425 458l-75 -458h-200l-180 1100h210l70 -589l70 589h210l70 -589l70 589h210l-180 -1100h-200z" />
    <glyph glyph-name="x" unicode="x" 
d="M250 825l70 275h210l-175 -550l175 -550h-210l-70 275l-70 -275h-210l175 550l-175 550h210z" />
    <glyph glyph-name="y" unicode="y" 
d="M150 0l-180 1100h210l70 -589l70 589h210l-230 -1400h-190l39 300h1z" />
    <glyph glyph-name="z" unicode="z" horiz-adv-x="550" 
d="M240 900h-240v200h450v-200l-240 -700h240v-200h-450v200z" />
    <glyph glyph-name="braceleft" unicode="{" horiz-adv-x="550" 
d="M50 600h-50v200h50q21 0 35.5 14.5t14.5 35.5v400q0 104 73 177t177 73h100v-200h-100q-21 0 -35.5 -14.5t-14.5 -35.5v-400q0 -85 -49 -150q49 -65 49 -150v-400q0 -21 14.5 -35.5t35.5 -14.5h100v-200h-100q-104 0 -177 73t-73 177v400q0 21 -14.5 35.5t-35.5 14.5z
" />
    <glyph glyph-name="bar" unicode="|" horiz-adv-x="300" 
d="M200 1500v-1600h-200v1600h200z" />
    <glyph glyph-name="braceright" unicode="}" horiz-adv-x="550" 
d="M400 800h50v-200h-50q-21 0 -35.5 -14.5t-14.5 -35.5v-400q0 -104 -73 -177t-177 -73h-100v200h100q21 0 35.5 14.5t14.5 35.5v400q0 85 49 150q-49 65 -49 150v400q0 21 -14.5 35.5t-35.5 14.5h-100v200h100q104 0 177 -73t73 -177v-400q0 -21 14.5 -35.5t35.5 -14.5z
" />
    <glyph glyph-name="asciitilde" unicode="~" horiz-adv-x="700" 
d="M0 600v200q150 100 300 0t300 0v-200q-150 -100 -300 0t-300 0z" />
    <glyph glyph-name="exclamdown" unicode="&#xa1;" horiz-adv-x="300" 
d="M200 1024v-200h-200v200h200zM0 -376v1100h200v-1100h-200z" />
    <glyph glyph-name="cent" unicode="&#xa2;" 
d="M200 1095v105h100v-105q72 -13 127 -68q73 -73 73 -177v-50l-200 -50v100q0 21 -14.5 35.5t-35.5 14.5t-35.5 -14.5t-14.5 -35.5v-600q0 -21 14.5 -35.5t35.5 -14.5t35.5 14.5t14.5 35.5v100l200 -50v-50q0 -104 -73 -177q-55 -55 -127 -68v-105h-100v105q-72 13 -127 68
q-73 73 -73 177v600q0 104 73 177q55 55 127 68z" />
    <glyph glyph-name="sterling" unicode="&#xa3;" horiz-adv-x="650" 
d="M550 1150v-100l-200 -50v150q0 21 -14.5 35.5t-35.5 14.5t-35.5 -14.5t-14.5 -35.5v-250h250l-50 -200h-200v-100h250l-50 -200h-200v-200h300v-200h-550v200h50v200h-50v200h50v100h-50v200h50v250q0 104 73 177t177 73t177 -73t73 -177z" />
    <glyph glyph-name="currency" unicode="&#xa4;" horiz-adv-x="1014" 
 />
    <glyph glyph-name="yen" unicode="&#xa5;" 
d="M149 600l-179 800h210l70 -450l70 450h210l-179 -800h99v-200h-100v-100h100v-200h-100v-100h-200v100h-100v200h100v100h-100v200h99z" />
    <glyph glyph-name="brokenbar" unicode="&#xa6;" horiz-adv-x="300" 
d="M200 1433.99v-687.988h-200v687.988h200zM200 277.989v-687.988h-200v687.988h200z" />
    <glyph glyph-name="section" unicode="&#xa7;" 
d="M500 1150v-50l-200 -50v100q0 21 -14.5 35.5t-35.5 14.5t-35.5 -14.5t-14.5 -35.5v-100q0 -21 14.5 -35.5t35.5 -14.5q104 0 177 -73t73 -177v-100q0 -85 -49 -150q49 -65 49 -150v-100q0 -104 -73 -177t-177 -73t-177 73t-73 177v50l200 50v-100q0 -21 14.5 -35.5
t35.5 -14.5t35.5 14.5t14.5 35.5v100q0 21 -14.5 35.5t-35.5 14.5q-104 0 -177 73t-73 177v100q0 85 49 150q-49 65 -49 150v100q0 104 73 177t177 73t177 -73t73 -177zM300 750q0 21 -14.5 35.5t-35.5 14.5t-35.5 -14.5t-14.5 -35.5v-100q0 -21 14.5 -35.5t35.5 -14.5
t35.5 14.5t14.5 35.5v100z" />
    <glyph glyph-name="dieresis" unicode="&#xa8;" horiz-adv-x="450" 
d="M350 1400v-150h-150v150h150zM150 1400v-150h-150v150h150z" />
    <glyph glyph-name="copyright" unicode="&#xa9;" horiz-adv-x="1200" 
d="M600 550v100l200 -50v-50q0 -104 -73 -177t-177 -73t-177 73t-73 177v300q0 104 73 177t177 73t177 -73t73 -177v-50l-200 -50v100q0 21 -14.5 35.5t-35.5 14.5t-35.5 -14.5t-14.5 -35.5v-300q0 -21 14.5 -35.5t35.5 -14.5t35.5 14.5t14.5 35.5zM900 850
q0 145 -102.5 247.5t-247.5 102.5t-247.5 -102.5t-102.5 -247.5v-300q0 -145 102.5 -247.5t247.5 -102.5t247.5 102.5t102.5 247.5v300zM0 850q0 228 161 389t389 161t389 -161t161 -389v-300q0 -228 -161 -389t-389 -161t-389 161t-161 389v300z" />
    <glyph glyph-name="ordfeminine" unicode="&#xaa;" 
d="M0 1150q0 104 73 177t177 73q75 0 135 -38l15 38h100v-600h-100l-15 38q-60 -38 -135 -38q-104 0 -177 73t-73 177v100zM300 1150q0 21 -14.5 35.5t-35.5 14.5t-35.5 -14.5t-14.5 -35.5v-100q0 -21 14.5 -35.5t35.5 -14.5t35.5 14.5t14.5 35.5v100z" />
    <glyph glyph-name="guillemotleft" unicode="&#xab;" horiz-adv-x="758" 
d="M0 700l150 350h200l-150 -350l150 -350h-200zM308 700l150 350h200l-150 -350l150 -350h-200z" />
    <glyph glyph-name="logicalnot" unicode="&#xac;" horiz-adv-x="1014" 
 />
    <glyph glyph-name="registered" unicode="&#xae;" horiz-adv-x="1200" 
d="M550 1100q104 0 177 -73t73 -177q0 -85 -49 -150q49 -65 49 -150v-245q100 102 100 245v300q0 145 -102.5 247.5t-247.5 102.5q-143 0 -245 -100h245zM300 1095q-100 -102 -100 -245v-300q0 -143 100 -245v790zM305 300q102 -100 245 -100t245 100h-195v250
q0 21 -14.5 35.5t-35.5 14.5h-50v-300h-195zM600 850q0 21 -14.5 35.5t-35.5 14.5h-50v-100h50q21 0 35.5 14.5t14.5 35.5zM0 850q0 228 161 389t389 161t389 -161t161 -389v-300q0 -228 -161 -389t-389 -161t-389 161t-161 389v300z" />
    <glyph glyph-name="macron" unicode="&#xaf;" 
d="M500 1424v-200h-500v200h500z" />
    <glyph glyph-name="degree" unicode="&#xb0;" horiz-adv-x="500" 
d="M341.5 1341.5q58.5 -58.5 58.5 -141.5t-58.5 -141.5t-141.5 -58.5t-141.5 58.5t-58.5 141.5t58.5 141.5t141.5 58.5t141.5 -58.5zM200 1300q-41 0 -70.5 -29.5t-29.5 -70.5t29.5 -70.5t70.5 -29.5t70.5 29.5t29.5 70.5t-29.5 70.5t-70.5 29.5z" />
    <glyph glyph-name="plusminus" unicode="&#xb1;" 
d="M150 550v150h-150v200h150v150h200v-150h150v-200h-150v-150h150v-200h-500v200h150z" />
    <glyph glyph-name="uni00B2" unicode="&#xb2;" horiz-adv-x="1014" 
 />
    <glyph glyph-name="uni00B3" unicode="&#xb3;" horiz-adv-x="1014" 
 />
    <glyph glyph-name="acute" unicode="&#xb4;" horiz-adv-x="350" 
d="M250 1400l-100 -250h-150l50 250h200z" />
    <glyph glyph-name="mu" unicode="&#xb5;" 
d="M250 0q-26 0 -50 5v-305h-200v1400h200v-850q0 -21 14.5 -35.5t35.5 -14.5t35.5 14.5t14.5 35.5v850h200v-1100h-100l-15 38q-60 -38 -135 -38z" />
    <glyph glyph-name="paragraph" unicode="&#xb6;" horiz-adv-x="650" 
d="M200 605q-72 13 -127 68q-73 73 -73 177v300q0 104 73 177t177 73h300v-1400h-150v1250h-50v-1250h-150v605z" />
    <glyph glyph-name="periodcentered" unicode="&#xb7;" horiz-adv-x="300" 
d="M169.995 801.995v-169.995h-169.995v169.995h169.995z" />
    <glyph glyph-name="periodcentered" unicode="&#x2219;" horiz-adv-x="300" 
d="M169.995 801.995v-169.995h-169.995v169.995h169.995z" />
    <glyph glyph-name="cedilla" unicode="&#xb8;" horiz-adv-x="450" 
d="M307 92q43 -62 43 -142q0 -104 -73 -177t-177 -73h-100l50 200h50q21 0 35.5 14.5t14.5 35.5t-14.5 35.5t-35.5 14.5z" />
    <glyph glyph-name="uni00B9" unicode="&#xb9;" horiz-adv-x="400" 
d="M300 1400v-700h-200v500h-100l50 200h250z" />
    <glyph glyph-name="ordmasculine" unicode="&#xba;" 
d="M0 1150q0 104 73 177t177 73t177 -73t73 -177v-200q0 -104 -73 -177t-177 -73t-177 73t-73 177v200zM300 1150q0 21 -14.5 35.5t-35.5 14.5t-35.5 -14.5t-14.5 -35.5v-200q0 -21 14.5 -35.5t35.5 -14.5t35.5 14.5t14.5 35.5v200z" />
    <glyph glyph-name="guillemotright" unicode="&#xbb;" horiz-adv-x="758" 
d="M350 700l-150 -350h-200l150 350l-150 350h200zM658 700l-150 -350h-200l150 350l-150 350h200z" />
    <glyph glyph-name="onequarter" unicode="&#xbc;" horiz-adv-x="1708" 
 />
    <glyph glyph-name="onehalf" unicode="&#xbd;" horiz-adv-x="1964" 
 />
    <glyph glyph-name="threequarters" unicode="&#xbe;" horiz-adv-x="1708" 
 />
    <glyph glyph-name="questiondown" unicode="&#xbf;" 
d="M300 -126v150l200 -50v-100q0 -104 -73 -177t-177 -73t-177 73t-73 177v300q0 104 73 177t177 73q21 0 35.5 14.5t14.5 35.5v250h200v-250q0 -104 -73 -177t-177 -73q-21 0 -35.5 -14.5t-14.5 -35.5v-300q0 -21 14.5 -35.5t35.5 -14.5t35.5 14.5t14.5 35.5zM500 1024
v-200h-200v200h200z" />
    <glyph glyph-name="Agrave" unicode="&#xc0;" 
d="M186 150l-16 -150h-200l180 1400h200l180 -1400h-200l-16 150h-128zM293 350l-43 400l-43 -400h86zM283 1810l50 -250h-150l-100 250h200z" />
    <glyph glyph-name="Aacute" unicode="&#xc1;" 
d="M186 150l-16 -150h-200l180 1400h200l180 -1400h-200l-16 150h-128zM293 350l-43 400l-43 -400h86zM417 1810l-100 -250h-150l50 250h200z" />
    <glyph glyph-name="Acircumflex" unicode="&#xc2;" 
d="M186 150l-16 -150h-200l180 1400h200l180 -1400h-200l-16 150h-128zM293 350l-43 400l-43 -400h86zM188 1510h-187l160 300h178l160 -300h-187l-62 161z" />
    <glyph glyph-name="Atilde" unicode="&#xc3;" 
d="M186 150l-16 -150h-200l180 1400h200l180 -1400h-200l-16 150h-128zM293 350l-43 400l-43 -400h86zM50 1610v150q100 100 200 50q100 -100 200 0v-150q-100 -100 -200 0q-100 50 -200 -50z" />
    <glyph glyph-name="Adieresis" unicode="&#xc4;" 
d="M186 150l-16 -150h-200l180 1400h200l180 -1400h-200l-16 150h-128zM293 350l-43 400l-43 -400h86zM425 1810v-150h-150v150h150zM225 1810v-150h-150v150h150z" />
    <glyph glyph-name="Aring" unicode="&#xc5;" 
d="M186 150l-16 -150h-200l180 1400h200l180 -1400h-200l-16 150h-128zM293 350l-43 400l-43 -400h86zM391.5 1751.5q58.5 -58.5 58.5 -141.5t-58.5 -141.5t-141.5 -58.5t-141.5 58.5t-58.5 141.5t58.5 141.5t141.5 58.5t141.5 -58.5zM250 1710q-41 0 -70.5 -29.5
t-29.5 -70.5t29.5 -70.5t70.5 -29.5t70.5 29.5t29.5 70.5t-29.5 70.5t-70.5 29.5z" />
    <glyph glyph-name="AE" unicode="&#xc6;" horiz-adv-x="830" 
d="M330 350v328l-78 -328h78zM330 0v150h-125l-35 -150h-200l360 1400h400v-200h-200v-400h150v-200h-150v-400h200v-200h-400z" />
    <glyph glyph-name="Ccedilla" unicode="&#xc7;" 
d="M190 7q-66 15 -117 66q-73 73 -73 177v900q0 104 73 177t177 73t177 -73t73 -177v-100l-200 -50v150q0 21 -14.5 35.5t-35.5 14.5t-35.5 -14.5t-14.5 -35.5v-900q0 -21 14.5 -35.5t35.5 -14.5t35.5 14.5t14.5 35.5v150l200 -50v-100q0 -104 -73 -177q-11 -11 -23 -20
q21 -47 21 -103q0 -104 -73 -177t-177 -73h-100l50 200h50q21 0 35.5 14.5t14.5 35.5t-14.5 35.5t-35.5 14.5z" />
    <glyph glyph-name="Egrave" unicode="&#xc8;" horiz-adv-x="500" 
d="M200 200h200v-200h-400v1400h400v-200h-200v-400h150v-200h-150v-400zM233 1810l50 -250h-150l-100 250h200z" />
    <glyph glyph-name="Eacute" unicode="&#xc9;" horiz-adv-x="500" 
d="M200 200h200v-200h-400v1400h400v-200h-200v-400h150v-200h-150v-400zM367 1810l-100 -250h-150l50 250h200z" />
    <glyph glyph-name="Ecircumflex" unicode="&#xca;" horiz-adv-x="500" 
d="M200 200h200v-200h-400v1400h400v-200h-200v-400h150v-200h-150v-400zM138 1510h-187l160 300h178l160 -300h-187l-62 161z" />
    <glyph glyph-name="Edieresis" unicode="&#xcb;" horiz-adv-x="500" 
d="M200 200h200v-200h-400v1400h400v-200h-200v-400h150v-200h-150v-400zM375 1810v-150h-150v150h150zM175 1810v-150h-150v150h150z" />
    <glyph glyph-name="Igrave" unicode="&#xcc;" horiz-adv-x="300" 
d="M200 1400v-1400h-200v1400h200zM133 1810l50 -250h-150l-100 250h200z" />
    <glyph glyph-name="Iacute" unicode="&#xcd;" horiz-adv-x="300" 
d="M200 1400v-1400h-200v1400h200zM267 1810l-100 -250h-150l50 250h200z" />
    <glyph glyph-name="Icircumflex" unicode="&#xce;" horiz-adv-x="300" 
d="M200 1400v-1400h-200v1400h200zM38 1510h-187l160 300h178l160 -300h-187l-62 161z" />
    <glyph glyph-name="Idieresis" unicode="&#xcf;" horiz-adv-x="300" 
d="M200 1400v-1400h-200v1400h200zM275 1810v-150h-150v150h150zM75 1810v-150h-150v150h150z" />
    <glyph glyph-name="Eth" unicode="&#xd0;" horiz-adv-x="650" 
d="M50 800v600h250q104 0 177 -73t73 -177v-900q0 -104 -73 -177t-177 -73h-250v600h-50v200h50zM250 800h51v-200h-51v-400h50q21 0 35.5 14.5t14.5 35.5v900q0 21 -14.5 35.5t-35.5 14.5h-50v-400z" />
    <glyph glyph-name="Ntilde" unicode="&#xd1;" 
d="M200 600v-600h-200v1400h200l100 -600v600h200v-1400h-200zM50 1610v150q100 100 200 50q100 -100 200 0v-150q-100 -100 -200 0q-100 50 -200 -50z" />
    <glyph glyph-name="Ograve" unicode="&#xd2;" 
d="M0 1150q0 104 73 177t177 73t177 -73t73 -177v-900q0 -104 -73 -177t-177 -73t-177 73t-73 177v900zM300 1150q0 21 -14.5 35.5t-35.5 14.5t-35.5 -14.5t-14.5 -35.5v-900q0 -21 14.5 -35.5t35.5 -14.5t35.5 14.5t14.5 35.5v900zM283 1810l50 -250h-150l-100 250h200z
" />
    <glyph glyph-name="Oacute" unicode="&#xd3;" 
d="M0 1150q0 104 73 177t177 73t177 -73t73 -177v-900q0 -104 -73 -177t-177 -73t-177 73t-73 177v900zM300 1150q0 21 -14.5 35.5t-35.5 14.5t-35.5 -14.5t-14.5 -35.5v-900q0 -21 14.5 -35.5t35.5 -14.5t35.5 14.5t14.5 35.5v900zM417 1810l-100 -250h-150l50 250h200z
" />
    <glyph glyph-name="Ocircumflex" unicode="&#xd4;" 
d="M0 1150q0 104 73 177t177 73t177 -73t73 -177v-900q0 -104 -73 -177t-177 -73t-177 73t-73 177v900zM300 1150q0 21 -14.5 35.5t-35.5 14.5t-35.5 -14.5t-14.5 -35.5v-900q0 -21 14.5 -35.5t35.5 -14.5t35.5 14.5t14.5 35.5v900zM188 1510h-187l160 300h178l160 -300
h-187l-62 161z" />
    <glyph glyph-name="Otilde" unicode="&#xd5;" 
d="M0 1150q0 104 73 177t177 73t177 -73t73 -177v-900q0 -104 -73 -177t-177 -73t-177 73t-73 177v900zM300 1150q0 21 -14.5 35.5t-35.5 14.5t-35.5 -14.5t-14.5 -35.5v-900q0 -21 14.5 -35.5t35.5 -14.5t35.5 14.5t14.5 35.5v900zM50 1610v150q100 100 200 50
q100 -100 200 0v-150q-100 -100 -200 0q-100 50 -200 -50z" />
    <glyph glyph-name="Odieresis" unicode="&#xd6;" 
d="M0 1150q0 104 73 177t177 73t177 -73t73 -177v-900q0 -104 -73 -177t-177 -73t-177 73t-73 177v900zM300 1150q0 21 -14.5 35.5t-35.5 14.5t-35.5 -14.5t-14.5 -35.5v-900q0 -21 14.5 -35.5t35.5 -14.5t35.5 14.5t14.5 35.5v900zM425 1810v-150h-150v150h150zM225 1810
v-150h-150v150h150z" />
    <glyph glyph-name="multiply" unicode="&#xd7;" 
d="M250 841l106 106l141 -141l-106 -106l106 -106l-141 -141l-106 106l-106 -106l-141 141l106 106l-106 106l141 141z" />
    <glyph glyph-name="Oslash" unicode="&#xd8;" 
d="M316 1198q-7 2 -16 2q-21 0 -35.5 -14.5t-14.5 -35.5v-224zM350 474l-66 -272q7 -2 16 -2q21 0 35.5 14.5t14.5 35.5v224zM64 164q-14 40 -14 86v900q0 104 73 177t177 73q33 0 64 -8l26 108h210l-64 -264q14 -40 14 -86v-900q0 -104 -73 -177t-177 -73q-33 0 -64 8
l-26 -108h-210z" />
    <glyph glyph-name="Ugrave" unicode="&#xd9;" 
d="M0 250v1150h200v-1150q0 -21 14.5 -35.5t35.5 -14.5t35.5 14.5t14.5 35.5v1150h200v-1150q0 -104 -73 -177t-177 -73t-177 73t-73 177zM283 1810l50 -250h-150l-100 250h200z" />
    <glyph glyph-name="Uacute" unicode="&#xda;" 
d="M0 250v1150h200v-1150q0 -21 14.5 -35.5t35.5 -14.5t35.5 14.5t14.5 35.5v1150h200v-1150q0 -104 -73 -177t-177 -73t-177 73t-73 177zM417 1810l-100 -250h-150l50 250h200z" />
    <glyph glyph-name="Ucircumflex" unicode="&#xdb;" 
d="M0 250v1150h200v-1150q0 -21 14.5 -35.5t35.5 -14.5t35.5 14.5t14.5 35.5v1150h200v-1150q0 -104 -73 -177t-177 -73t-177 73t-73 177zM188 1510h-187l160 300h178l160 -300h-187l-62 161z" />
    <glyph glyph-name="Udieresis" unicode="&#xdc;" 
d="M0 250v1150h200v-1150q0 -21 14.5 -35.5t35.5 -14.5t35.5 14.5t14.5 35.5v1150h200v-1150q0 -104 -73 -177t-177 -73t-177 73t-73 177zM425 1810v-150h-150v150h150zM225 1810v-150h-150v150h150z" />
    <glyph glyph-name="Yacute" unicode="&#xdd;" 
d="M150 596l-180 804h210l70 -450l70 450h210l-180 -804v-596h-200v596zM417 1810l-100 -250h-150l50 250h200z" />
    <glyph glyph-name="Thorn" unicode="&#xde;" 
d="M200 1200h50q104 0 177 -73t73 -177v-500q0 -104 -73 -177t-177 -73h-50v-200h-200v1400h200v-200zM200 400h50q21 0 35.5 14.5t14.5 35.5v500q0 21 -14.5 35.5t-35.5 14.5h-50v-600z" />
    <glyph glyph-name="germandbls" unicode="&#xdf;" 
d="M200 -100l-200 -50v1550h250q104 0 177 -73t73 -177v-300q0 -85 -49 -150q49 -65 49 -150v-300q0 -104 -73 -177t-177 -73v200q21 0 35.5 14.5t14.5 35.5v300q0 21 -14.5 35.5t-35.5 14.5v200q21 0 35.5 14.5t14.5 35.5v300q0 21 -14.5 35.5t-35.5 14.5h-50v-1300z" />
    <glyph glyph-name="agrave" unicode="&#xe0;" 
d="M0 850q0 104 73 177t177 73q75 0 135 -38l15 38h100v-1100h-100l-15 38q-60 -38 -135 -38q-104 0 -177 73t-73 177v600zM300 850q0 21 -14.5 35.5t-35.5 14.5t-35.5 -14.5t-14.5 -35.5v-600q0 -21 14.5 -35.5t35.5 -14.5t35.5 14.5t14.5 35.5v600zM283 1400l50 -250h-150
l-100 250h200z" />
    <glyph glyph-name="aacute" unicode="&#xe1;" 
d="M0 850q0 104 73 177t177 73q75 0 135 -38l15 38h100v-1100h-100l-15 38q-60 -38 -135 -38q-104 0 -177 73t-73 177v600zM300 850q0 21 -14.5 35.5t-35.5 14.5t-35.5 -14.5t-14.5 -35.5v-600q0 -21 14.5 -35.5t35.5 -14.5t35.5 14.5t14.5 35.5v600zM417 1400l-100 -250
h-150l50 250h200z" />
    <glyph glyph-name="acircumflex" unicode="&#xe2;" 
d="M0 850q0 104 73 177t177 73q75 0 135 -38l15 38h100v-1100h-100l-15 38q-60 -38 -135 -38q-104 0 -177 73t-73 177v600zM300 850q0 21 -14.5 35.5t-35.5 14.5t-35.5 -14.5t-14.5 -35.5v-600q0 -21 14.5 -35.5t35.5 -14.5t35.5 14.5t14.5 35.5v600zM188 1100h-187l160 300
h178l160 -300h-187l-62 161z" />
    <glyph glyph-name="atilde" unicode="&#xe3;" 
d="M0 850q0 104 73 177t177 73q75 0 135 -38l15 38h100v-1100h-100l-15 38q-60 -38 -135 -38q-104 0 -177 73t-73 177v600zM300 850q0 21 -14.5 35.5t-35.5 14.5t-35.5 -14.5t-14.5 -35.5v-600q0 -21 14.5 -35.5t35.5 -14.5t35.5 14.5t14.5 35.5v600zM50 1200v150
q100 100 200 50q100 -100 200 0v-150q-100 -100 -200 0q-100 50 -200 -50z" />
    <glyph glyph-name="adieresis" unicode="&#xe4;" 
d="M0 850q0 104 73 177t177 73q75 0 135 -38l15 38h100v-1100h-100l-15 38q-60 -38 -135 -38q-104 0 -177 73t-73 177v600zM300 850q0 21 -14.5 35.5t-35.5 14.5t-35.5 -14.5t-14.5 -35.5v-600q0 -21 14.5 -35.5t35.5 -14.5t35.5 14.5t14.5 35.5v600zM425 1400v-150h-150
v150h150zM225 1400v-150h-150v150h150z" />
    <glyph glyph-name="aring" unicode="&#xe5;" 
d="M0 850q0 104 73 177t177 73q75 0 135 -38l15 38h100v-1100h-100l-15 38q-60 -38 -135 -38q-104 0 -177 73t-73 177v600zM300 850q0 21 -14.5 35.5t-35.5 14.5t-35.5 -14.5t-14.5 -35.5v-600q0 -21 14.5 -35.5t35.5 -14.5t35.5 14.5t14.5 35.5v600zM391.5 1341.5
q58.5 -58.5 58.5 -141.5t-58.5 -141.5t-141.5 -58.5t-141.5 58.5t-58.5 141.5t58.5 141.5t141.5 58.5t141.5 -58.5zM250 1300q-41 0 -70.5 -29.5t-29.5 -70.5t29.5 -70.5t70.5 -29.5t70.5 29.5t29.5 70.5t-29.5 70.5t-70.5 29.5z" />
    <glyph glyph-name="ae" unicode="&#xe6;" horiz-adv-x="900" 
d="M500 5v-5h-100l-15 38q-60 -38 -135 -38q-104 0 -177 73t-73 177v600q0 104 73 177t177 73q75 0 135 -38l15 38h100v-5q24 5 50 5q104 0 177 -73t73 -177v-400h-300v-200q0 -21 15 -35q14 -15 35 -15t35.5 14.5t14.5 35.5v100l200 -50v-50q0 -104 -73 -177t-177 -73
q-26 0 -50 5zM500 850v-200h100v200q0 21 -14.5 35.5t-35.5 14.5t-35 -14q-15 -15 -15 -36zM300 850q0 21 -14.5 35.5t-35.5 14.5t-35.5 -14.5t-14.5 -35.5v-600q0 -21 14.5 -35.5t35.5 -14.5t35.5 14.5t14.5 35.5v600z" />
    <glyph glyph-name="ccedilla" unicode="&#xe7;" 
d="M190 7q-66 15 -117 66q-73 73 -73 177v600q0 104 73 177t177 73t177 -73t73 -177v-50l-200 -50v100q0 21 -14.5 35.5t-35.5 14.5t-35.5 -14.5t-14.5 -35.5v-600q0 -21 14.5 -35.5t35.5 -14.5t35.5 14.5t14.5 35.5v100l200 -50v-50q0 -104 -73 -177q-11 -11 -23 -20
q21 -47 21 -103q0 -104 -73 -177t-177 -73h-100l50 200h50q21 0 35.5 14.5t14.5 35.5t-14.5 35.5t-35.5 14.5z" />
    <glyph glyph-name="egrave" unicode="&#xe8;" 
d="M300 850q0 21 -14.5 35.5t-35.5 14.5t-35.5 -14.5t-14.5 -35.5v-200h100v200zM0 850q0 104 73 177t177 73t177 -73t73 -177v-400h-300v-200q0 -21 14.5 -35.5t35.5 -14.5t35.5 14.5t14.5 35.5v100l200 -50v-50q0 -104 -73 -177t-177 -73t-177 73t-73 177v600zM283 1400
l50 -250h-150l-100 250h200z" />
    <glyph glyph-name="eacute" unicode="&#xe9;" 
d="M300 850q0 21 -14.5 35.5t-35.5 14.5t-35.5 -14.5t-14.5 -35.5v-200h100v200zM0 850q0 104 73 177t177 73t177 -73t73 -177v-400h-300v-200q0 -21 14.5 -35.5t35.5 -14.5t35.5 14.5t14.5 35.5v100l200 -50v-50q0 -104 -73 -177t-177 -73t-177 73t-73 177v600zM417 1400
l-100 -250h-150l50 250h200z" />
    <glyph glyph-name="ecircumflex" unicode="&#xea;" 
d="M300 850q0 21 -14.5 35.5t-35.5 14.5t-35.5 -14.5t-14.5 -35.5v-200h100v200zM0 850q0 104 73 177t177 73t177 -73t73 -177v-400h-300v-200q0 -21 14.5 -35.5t35.5 -14.5t35.5 14.5t14.5 35.5v100l200 -50v-50q0 -104 -73 -177t-177 -73t-177 73t-73 177v600zM188 1100
h-187l160 300h178l160 -300h-187l-62 161z" />
    <glyph glyph-name="edieresis" unicode="&#xeb;" 
d="M300 850q0 21 -14.5 35.5t-35.5 14.5t-35.5 -14.5t-14.5 -35.5v-200h100v200zM0 850q0 104 73 177t177 73t177 -73t73 -177v-400h-300v-200q0 -21 14.5 -35.5t35.5 -14.5t35.5 14.5t14.5 35.5v100l200 -50v-50q0 -104 -73 -177t-177 -73t-177 73t-73 177v600zM425 1400
v-150h-150v150h150zM225 1400v-150h-150v150h150z" />
    <glyph glyph-name="igrave" unicode="&#xec;" horiz-adv-x="300" 
d="M200 1100v-1100h-200v1100h200zM133 1400l50 -250h-150l-100 250h200z" />
    <glyph glyph-name="iacute" unicode="&#xed;" horiz-adv-x="300" 
d="M200 1100v-1100h-200v1100h200zM267 1400l-100 -250h-150l50 250h200z" />
    <glyph glyph-name="icircumflex" unicode="&#xee;" horiz-adv-x="300" 
d="M200 1100v-1100h-200v1100h200zM38 1100h-187l160 300h178l160 -300h-187l-62 161z" />
    <glyph glyph-name="idieresis" unicode="&#xef;" horiz-adv-x="300" 
d="M200 1100v-1100h-200v1100h200zM275 1400v-150h-150v150h150zM75 1400v-150h-150v150h150z" />
    <glyph glyph-name="eth" unicode="&#xf0;" 
d="M300 600q0 21 -14.5 35.5t-35.5 14.5t-35.5 -14.5t-14.5 -35.5v-350q0 -21 14.5 -35.5t35.5 -14.5t35.5 14.5t14.5 35.5v350zM300 1100v50q0 21 -14.5 35.5t-35.5 14.5t-35.5 -14.5t-14.5 -35.5h-200q0 104 73 177t177 73t177 -73t73 -177v-900q0 -104 -73 -177t-177 -73
t-177 73t-73 177v350q0 104 73 177t177 73q26 0 50 -5v55h-250v200h250z" />
    <glyph glyph-name="ntilde" unicode="&#xf1;" 
d="M500 850v-850h-200v850q0 21 -14.5 35.5t-35.5 14.5t-35.5 -14.5t-14.5 -35.5v-850h-200v1100h100l15 -38q60 38 135 38q104 0 177 -73t73 -177zM50 1200v150q100 100 200 50q100 -100 200 0v-150q-100 -100 -200 0q-100 50 -200 -50z" />
    <glyph glyph-name="ograve" unicode="&#xf2;" 
d="M0 850q0 104 73 177t177 73t177 -73t73 -177v-600q0 -104 -73 -177t-177 -73t-177 73t-73 177v600zM300 850q0 21 -14.5 35.5t-35.5 14.5t-35.5 -14.5t-14.5 -35.5v-600q0 -21 14.5 -35.5t35.5 -14.5t35.5 14.5t14.5 35.5v600zM283 1400l50 -250h-150l-100 250h200z" />
    <glyph glyph-name="oacute" unicode="&#xf3;" 
d="M0 850q0 104 73 177t177 73t177 -73t73 -177v-600q0 -104 -73 -177t-177 -73t-177 73t-73 177v600zM300 850q0 21 -14.5 35.5t-35.5 14.5t-35.5 -14.5t-14.5 -35.5v-600q0 -21 14.5 -35.5t35.5 -14.5t35.5 14.5t14.5 35.5v600zM417 1400l-100 -250h-150l50 250h200z" />
    <glyph glyph-name="ocircumflex" unicode="&#xf4;" 
d="M0 850q0 104 73 177t177 73t177 -73t73 -177v-600q0 -104 -73 -177t-177 -73t-177 73t-73 177v600zM300 850q0 21 -14.5 35.5t-35.5 14.5t-35.5 -14.5t-14.5 -35.5v-600q0 -21 14.5 -35.5t35.5 -14.5t35.5 14.5t14.5 35.5v600zM188 1100h-187l160 300h178l160 -300h-187
l-62 161z" />
    <glyph glyph-name="otilde" unicode="&#xf5;" 
d="M0 850q0 104 73 177t177 73t177 -73t73 -177v-600q0 -104 -73 -177t-177 -73t-177 73t-73 177v600zM300 850q0 21 -14.5 35.5t-35.5 14.5t-35.5 -14.5t-14.5 -35.5v-600q0 -21 14.5 -35.5t35.5 -14.5t35.5 14.5t14.5 35.5v600zM50 1200v150q100 100 200 50
q100 -100 200 0v-150q-100 -100 -200 0q-100 50 -200 -50z" />
    <glyph glyph-name="odieresis" unicode="&#xf6;" 
d="M0 850q0 104 73 177t177 73t177 -73t73 -177v-600q0 -104 -73 -177t-177 -73t-177 73t-73 177v600zM300 850q0 21 -14.5 35.5t-35.5 14.5t-35.5 -14.5t-14.5 -35.5v-600q0 -21 14.5 -35.5t35.5 -14.5t35.5 14.5t14.5 35.5v600zM425 1400v-150h-150v150h150zM225 1400
v-150h-150v150h150z" />
    <glyph glyph-name="divide" unicode="&#xf7;" horiz-adv-x="800" 
d="M450 500v-200h-200v200h200zM450 1100v-200h-200v200h200zM700 800v-200h-700v200h700z" />
    <glyph glyph-name="oslash" unicode="&#xf8;" 
d="M279 896q-8 -4 -14 -10q-15 -15 -15 -36v-74zM350 324l-29 -120q8 4 15 11q14 14 14 35v74zM89 115q-39 59 -39 135v600q0 104 73 177t177 73q15 0 29 -1l61 251h210l-89 -365q39 -59 39 -135v-600q0 -104 -73 -177t-177 -73q-15 0 -29 1l-61 -251h-210z" />
    <glyph glyph-name="ugrave" unicode="&#xf9;" 
d="M0 250v850h200v-850q0 -21 14.5 -35.5t35.5 -14.5t35.5 14.5t14.5 35.5v850h200v-1100h-100l-15 38q-60 -38 -135 -38q-104 0 -177 73t-73 177zM283 1400l50 -250h-150l-100 250h200z" />
    <glyph glyph-name="uacute" unicode="&#xfa;" 
d="M0 250v850h200v-850q0 -21 14.5 -35.5t35.5 -14.5t35.5 14.5t14.5 35.5v850h200v-1100h-100l-15 38q-60 -38 -135 -38q-104 0 -177 73t-73 177zM417 1400l-100 -250h-150l50 250h200z" />
    <glyph glyph-name="ucircumflex" unicode="&#xfb;" 
d="M0 250v850h200v-850q0 -21 14.5 -35.5t35.5 -14.5t35.5 14.5t14.5 35.5v850h200v-1100h-100l-15 38q-60 -38 -135 -38q-104 0 -177 73t-73 177zM188 1100h-187l160 300h178l160 -300h-187l-62 161z" />
    <glyph glyph-name="udieresis" unicode="&#xfc;" 
d="M0 250v850h200v-850q0 -21 14.5 -35.5t35.5 -14.5t35.5 14.5t14.5 35.5v850h200v-1100h-100l-15 38q-60 -38 -135 -38q-104 0 -177 73t-73 177zM425 1400v-150h-150v150h150zM225 1400v-150h-150v150h150z" />
    <glyph glyph-name="yacute" unicode="&#xfd;" 
d="M150 0l-180 1100h210l70 -589l70 589h210l-230 -1400h-190l39 300h1zM417 1400l-100 -250h-150l50 250h200z" />
    <glyph glyph-name="thorn" unicode="&#xfe;" 
d="M200 1095q24 5 50 5q104 0 177 -73t73 -177v-600q0 -104 -73 -177t-177 -73q-26 0 -50 5v-305h-200v1700h200v-305zM200 250q0 -21 14.5 -35.5t35.5 -14.5t35.5 14.5t14.5 35.5v600q0 21 -14.5 35.5t-35.5 14.5t-35.5 -14.5t-14.5 -35.5v-600z" />
    <glyph glyph-name="ydieresis" unicode="&#xff;" 
d="M150 0l-180 1100h210l70 -589l70 589h210l-230 -1400h-190l39 300h1zM425 1400v-150h-150v150h150zM225 1400v-150h-150v150h150z" />
    <glyph glyph-name="dotlessi" unicode="&#x131;" horiz-adv-x="300" 
d="M200 1100v-1100h-200v1100h200z" />
    <glyph glyph-name="circumflex" unicode="&#x2c6;" 
d="M187 1100h-187l160 300h178l160 -300h-187l-62 161z" />
    <glyph glyph-name="caron" unicode="&#x2c7;" 
d="M249 1239l62 161h187l-160 -300h-178l-160 300h187z" />
    <glyph glyph-name="uni02C9" unicode="&#x2c9;" horiz-adv-x="1024" 
 />
    <glyph glyph-name="breve" unicode="&#x2d8;" horiz-adv-x="1024" 
 />
    <glyph glyph-name="dotaccent" unicode="&#x2d9;" horiz-adv-x="1024" 
 />
    <glyph glyph-name="ring" unicode="&#x2da;" horiz-adv-x="500" 
d="M341.5 1341.5q58.5 -58.5 58.5 -141.5t-58.5 -141.5t-141.5 -58.5t-141.5 58.5t-58.5 141.5t58.5 141.5t141.5 58.5t141.5 -58.5zM200 1300q-41 0 -70.5 -29.5t-29.5 -70.5t29.5 -70.5t70.5 -29.5t70.5 29.5t29.5 70.5t-29.5 70.5t-70.5 29.5z" />
    <glyph glyph-name="ogonek" unicode="&#x2db;" horiz-adv-x="450" 
d="M250 0q-21 0 -35.5 -14.5t-14.5 -35.5t14.5 -35.5t35.5 -14.5h50l50 -200h-100q-104 0 -177 73t-73 177q0 80 43 142z" />
    <glyph glyph-name="tilde" unicode="&#x2dc;" horiz-adv-x="500" 
d="M0 1200v150q100 100 200 50q100 -100 200 0v-150q-100 -100 -200 0q-100 50 -200 -50z" />
    <glyph glyph-name="hungarumlaut" unicode="&#x2dd;" horiz-adv-x="1024" 
d="M125 1400l-100 -250h-150l50 250h200zM375 1400l-100 -250h-150l50 250h200z" />
    <glyph glyph-name="endash" unicode="&#x2013;" horiz-adv-x="800" 
d="M700 800v-200h-700v200h700z" />
    <glyph glyph-name="emdash" unicode="&#x2014;" horiz-adv-x="1200" 
d="M1100 800v-200h-1100v200h1100z" />
    <glyph glyph-name="quoteleft" unicode="&#x2018;" horiz-adv-x="300" 
d="M100 1200h100v-200h-200v200q0 100 50 150t150 50v-100q-100 0 -100 -100z" />
    <glyph glyph-name="quoteright" unicode="&#x2019;" horiz-adv-x="300" 
d="M100 1200h-100v200h200v-200q0 -100 -50 -150t-150 -50v100q100 0 100 100z" />
    <glyph glyph-name="quotesinglbase" unicode="&#x201a;" horiz-adv-x="300" 
d="M100 0h-100v200h200v-200q0 -100 -50 -150t-150 -50v100q100 0 100 100z" />
    <glyph glyph-name="quotedblleft" unicode="&#x201c;" horiz-adv-x="550" 
d="M100 1200h100v-200h-200v200q0 100 50 150t150 50v-100q-100 0 -100 -100zM350 1200h100v-200h-200v200q0 100 50 150t150 50v-100q-100 0 -100 -100z" />
    <glyph glyph-name="quotedblright" unicode="&#x201d;" horiz-adv-x="550" 
d="M350 1200h-100v200h200v-200q0 -100 -50 -150t-150 -50v100q100 0 100 100zM100 1200h-100v200h200v-200q0 -100 -50 -150t-150 -50v100q100 0 100 100z" />
    <glyph glyph-name="quotedblbase" unicode="&#x201e;" horiz-adv-x="550" 
d="M350 0h-100v200h200v-200q0 -100 -50 -150t-150 -50v100q100 0 100 100zM100 0h-100v200h200v-200q0 -100 -50 -150t-150 -50v100q100 0 100 100z" />
    <glyph glyph-name="dagger" unicode="&#x2020;" horiz-adv-x="1014" 
 />
    <glyph glyph-name="daggerdbl" unicode="&#x2021;" horiz-adv-x="1014" 
 />
    <glyph glyph-name="bullet" unicode="&#x2022;" horiz-adv-x="400" 
d="M150 550q-62 0 -106 44t-44 106t44 106t106 44t106 -44t44 -106t-44 -106t-106 -44z" />
    <glyph glyph-name="ellipsis" unicode="&#x2026;" horiz-adv-x="1000" 
d="M200 200v-200h-200v200h200zM550 200v-200h-200v200h200zM900 200v-200h-200v200h200z" />
    <glyph glyph-name="guilsinglleft" unicode="&#x2039;" horiz-adv-x="450" 
d="M0 700l150 350h200l-150 -350l150 -350h-200z" />
    <glyph glyph-name="guilsinglright" unicode="&#x203a;" horiz-adv-x="450" 
d="M350 700l-150 -350h-200l150 350l-150 350h200z" />
    <glyph glyph-name="fraction" unicode="&#x2044;" horiz-adv-x="342" 
 />
    <glyph glyph-name="fraction" unicode="&#x2215;" horiz-adv-x="342" 
 />
    <glyph glyph-name="franc" unicode="&#x20a3;" horiz-adv-x="1014" 
 />
    <glyph glyph-name="lira" unicode="&#x20a4;" horiz-adv-x="1014" 
 />
    <glyph glyph-name="peseta" unicode="&#x20a7;" horiz-adv-x="1400" 
d="M180 1200v-400h45q19 0 32 14.5t13 35.5v300q0 21 -13 35.5t-32 14.5h-45zM450 900v-50q0 -104 -65.5 -177t-159.5 -73h-45v-600h-180v1400h225q94 0 159.5 -73t65.5 -177v-50h50v300h200v-300h100v-200h-100v-650q0 -21 14.5 -35.5t35.5 -14.5h50v-200h-50
q-104 0 -177 73t-73 177v650h-50zM1300 850v-50l-200 -50v100q0 21 -14.5 35.5t-35.5 14.5t-35.5 -14.5t-14.5 -35.5v-150q0 -21 14.5 -35.5t35.5 -14.5q104 0 177 -73t73 -177v-150q0 -104 -73 -177t-177 -73t-177 73t-73 177v50l200 50v-100q0 -21 14.5 -35.5t35.5 -14.5
t35.5 14.5t14.5 35.5v150q0 21 -14.5 35.5t-35.5 14.5q-104 0 -177 73t-73 177v150q0 104 73 177t177 73t177 -73t73 -177z" />
    <glyph glyph-name="Euro" unicode="&#x20ac;" horiz-adv-x="700" 
d="M100 950v200q0 104 73 177t177 73t177 -73t73 -177v-50l-200 -50v100q0 21 -14.5 35.5t-35.5 14.5t-35.5 -14.5t-14.5 -35.5v-200h250l-50 -200h-200v-100h250l-50 -200h-200v-200q0 -21 14.5 -35.5t35.5 -14.5t35.5 14.5t14.5 35.5v100l200 -50v-50q0 -104 -73 -177
t-177 -73t-177 73t-73 177v200h-100l50 200h50v100h-100l50 200h50z" />
    <glyph glyph-name="uni2116" unicode="&#x2116;" horiz-adv-x="1150" 
d="M850 1150q0 21 -14.5 35.5t-35.5 14.5t-35.5 -14.5t-14.5 -35.5v-200q0 -21 14.5 -35.5t35.5 -14.5t35.5 14.5t14.5 35.5v200zM200 600v-600h-200v1400h200l100 -600v600h200v-1400h-200zM550 1150q0 104 73 177t177 73t177 -73t73 -177v-200q0 -104 -73 -177t-177 -73
t-177 73t-73 177v200zM1050 650v-200h-500v200h500z" />
    <glyph glyph-name="trademark" unicode="&#x2122;" horiz-adv-x="595" 
d="M157.504 1354.03v-480.029h-90.002v480.029h-67.502v80.0049h225.006v-80.0049h-67.502zM348.753 934.004l-33.751 180.011v-240.015h-90.002v560.034h90.002l45.002 -240.015l45.001 240.015h90.0029v-560.034h-90.0029v240.015l-33.751 -180.011h-22.501z" />
    <glyph glyph-name="partialdiff" unicode="&#x2202;" horiz-adv-x="1014" 
 />
    <glyph glyph-name="Delta" unicode="&#x2206;" horiz-adv-x="1081" 
 />
    <glyph glyph-name="product" unicode="&#x220f;" horiz-adv-x="1515" 
 />
    <glyph glyph-name="summation" unicode="&#x2211;" horiz-adv-x="1206" 
 />
    <glyph glyph-name="minus" unicode="&#x2212;" horiz-adv-x="1014" 
 />
    <glyph glyph-name="radical" unicode="&#x221a;" horiz-adv-x="1014" 
 />
    <glyph glyph-name="infinity" unicode="&#x221e;" horiz-adv-x="1014" 
 />
    <glyph glyph-name="integral" unicode="&#x222b;" horiz-adv-x="665" 
 />
    <glyph glyph-name="approxequal" unicode="&#x2248;" horiz-adv-x="1014" 
 />
    <glyph glyph-name="lessequal" unicode="&#x2264;" horiz-adv-x="1014" 
 />
    <glyph glyph-name="greaterequal" unicode="&#x2265;" horiz-adv-x="1014" 
 />
    <glyph glyph-name="uniF001" unicode="&#xf001;" horiz-adv-x="1073" 
 />
    <glyph glyph-name="uniF001" unicode="&#xfb01;" horiz-adv-x="1073" 
 />
    <glyph glyph-name="uniF002" unicode="&#xf002;" horiz-adv-x="1081" 
 />
    <glyph glyph-name="uniF002" unicode="&#xfb02;" horiz-adv-x="1081" 
 />
  </font>
</defs>
</svg>
